Maria the Virgin Witch S01 1080p Hi10p BluRay FLAC5.1 x264 [CTR] (English Dubbed Dual Audio) (Junketsu no Maria)

Category:
Date:
2016-09-29 11:23 UTC
Submitter:
Seeders:
3
File size:
20.4 GiB
Completed:
75
Info hash:
9fda7309b427f4873b9f9a9e5667c5ae6dd6f7f9
![Image](https://i.gyazo.com/c9b7b7edc960c8235f71bd0faad7c1f8.png) **[720p Option→](https://www.nyaa.se/?page=view&tid=854848)** **[Release Thread](http://kametsu.com/topic/55711-megatorrent-ctr-maria-the-virgin-witch-bd-720p-10bit-1080p-10bitaac-51-flac-51-dual-audio-really-not-what-i-expected/) | [CTR Release Index](http://kametsu.com/topic/54803-the-ctr-index-your-new-home-for-bloated-1080p-dual-audio-releases/)** _~vivé la france~_ ![Image](http://kametsu.com/images/downloads/info.png) `<br></br>Video Track: 720p-Hi10p | 1080p-Hi10p (BlurayDesuYo)<br></br><br></br>Audio Track 1 (Default): English 5.1 AAC | 5.1 FLAC (Etzimal)<br></br>Audio Track 2: Japanese 2.0 AAC | 2.0 FLAC (BlurayDesuYo)<br></br>Audio Track 3: English Commentary 2.0 AAC | 2.0 FLAC (Etzimal) - S01E01, S01E12<br></br><br></br>Subtitle Track 1 (Default): English Signs (.ASS) (BlurayDesuYo)<br></br>Subtitle Track 2: English Dialogue (.ASS) (BlurayDesuYo)<br></br>Subtitle Track 3: English Signs (Retail) (.PGS) (Funimation)<br></br>Subtitle Track 4: English Subtitles (Retail) (.PGS) (Funimation)<br></br><br></br>Chapters<br></br>` This was done for a request, but this show was not nearly as bad as I expected it to be from the premise and the title. Not great by any stretch of the imagination, but not terrible. All in all I actually enjoyed a fair amount of it, so color me surprised. This release is super straightforward. BlurayDesuYo (DameDesuYo)'s video, both 720p and 1080p, paired with their subtitles. Etzimal-supplied audio, including a commentary track on episodes 1 and 12, and Funimation's official USBD signs/subs as a bonus because why not? Nothing special here. General Unique ID : 237848250339824016801066254702602906870 (0xB2EFE82117C980C7B80F7E01A73C6CF6) Complete name : S:\\TV (Auto Off)\\Maria the Virgin Witch\\Maria.the.Virgin.Witch.S01.1080p-Hi10p.BluRay.FLAC5.1.x264-CTR\\Maria.the.Virgin.Witch.S01E01.1080p-Hi10p.BluRay.FLAC5.1.x264-CTR.\[BA8855C9\].mkv Format : Matroska Format version : Version 4 / Version 2 File size : 1.85 GiB Duration : 23 min Overall bit rate mode : Variable Overall bit rate : 11.1 Mb/s Movie name : Junketsu no Maria - 01 Encoded date : UTC 2016-09-28 21:35:09 Writing application : mkvmerge v9.4.2 ('So High') 64bit Writing library : libebml v1.3.4 + libmatroska v1.4.5 Attachments : CHANCERY.TTF / Dosis-Regular.ttf / LinBiolinum\_R\_0.ttf / BlackBullet-dialogue.otf / CATANBON.TTF Video ID : 1 Format : AVC Format/Info : Advanced Video Codec Format profile : High 10@L5.1 Format settings, CABAC : Yes Format settings, ReFrames : 16 frames Codec ID : V\_MPEG4/ISO/AVC Duration : 23 min Bit rate : 7 451 kb/s Width : 1 920 pixels Height : 1 080 pixels Display aspect ratio : 16:9 Frame rate mode : Constant Frame rate : 23.976 (24000/1001) FPS Color space : YUV Chroma subsampling : 4:2:0 Bit depth : 10 bits Scan type : Progressive Bits/(Pixel\*Frame) : 0.150 Stream size : 1.24 GiB (67%) Title : \[BlurayDesuYo\] Writing library : x264 core 142 r2431+42 c69a006 tMod \[10-bit@all X86\_64\] Encoding settings : cabac=1 / ref=16 / deblock=1:-1:-2 / analyse=0x3:0x133 / me=umh / subme=10 / psy=1 / fade\_compensate=0.25 / psy\_rd=0.95:0.15 / mixed\_ref=1 / me\_range=32 / chroma\_me=1 / trellis=2 / 8x8dct=1 / cqm=0 / deadzone=21,11 / fast\_pskip=0 / chroma\_qp\_offset=-4 / threads=12 / lookahead\_threads=3 / sliced\_threads=0 / nr=0 / decimate=0 / interlaced=0 / bluray\_compat=0 / constrained\_intra=0 / fgo=0 / bframes=10 / b\_pyramid=2 / b\_adapt=2 / b\_bias=0 / direct=1 / weightb=1 / open\_gop=0 / weightp=2 / keyint=250 / keyint\_min=23 / scenecut=40 / intra\_refresh=0 / rc\_lookahead=40 / rc=crf / mbtree=1 / crf=15.5000 / qcomp=0.80 / qpmin=0:0:0 / qpmax=43:43:43 / qpstep=4 / ip\_ratio=1.40 / aq=3:0.85 / aq-sensitivity=10.00 / aq-factor=1.00:1.00:1.00 / aq2=0 / aq3=0 Language : Japanese Default : Yes Forced : No Color range : Limited Matrix coefficients : BT.709 Audio [\#1](//www.nyaa.se/?page=view&tid=1) ID : 2 Format : FLAC Format/Info : Free Lossless Audio Codec Codec ID : A\_FLAC Duration : 23 min Bit rate mode : Variable Bit rate : 1 598 kb/s Channel(s) : 6 channels Channel positions : Front: L C R, Side: L R, LFE Sampling rate : 48.0 kHz Frame rate : 11.719 FPS (4096 spf) Bit depth : 16 bits Delay relative to video : 24 ms Stream size : 272 MiB (14%) Title : FLAC 2.0 \[Etzimal\] Writing library : libFLAC 1.2.1 (UTC 2007-09-17) Language : English Default : Yes Forced : No Audio [\#2](//www.nyaa.se/?page=view&tid=2) ID : 3 Format : FLAC Format/Info : Free Lossless Audio Codec Codec ID : A\_FLAC Duration : 23 min Bit rate mode : Variable Bit rate : 1 529 kb/s Channel(s) : 2 channels Channel positions : Front: L R Sampling rate : 48.0 kHz Frame rate : 11.719 FPS (4096 spf) Bit depth : 24 bits Stream size : 260 MiB (14%) Title : FLAC 2.0 \[BlurayDesuYo\] Writing library : libFLAC 1.3.0 (UTC 2013-05-26) Language : Japanese Default : No Forced : No Audio [\#3](//www.nyaa.se/?page=view&tid=3) ID : 4 Format : FLAC Format/Info : Free Lossless Audio Codec Codec ID : A\_FLAC Duration : 23 min Bit rate mode : Variable Bit rate : 536 kb/s Channel(s) : 2 channels Channel positions : Front: L R Sampling rate : 48.0 kHz Frame rate : 11.719 FPS (4096 spf) Bit depth : 16 bits Delay relative to video : 24 ms Stream size : 91.0 MiB (5%) Title : Commentary - FLAC 2.0 \[Etzimal\] Writing library : libFLAC 1.2.1 (UTC 2007-09-17) Language : English Default : No Forced : No Text [\#1](//www.nyaa.se/?page=view&tid=1) ID : 5 Format : ASS Codec ID : S\_TEXT/ASS Codec ID/Info : Advanced Sub Station Alpha Duration : 23 min Bit rate : 540 b/s Count of elements : 576 Compression mode : Lossless Stream size : 91.4 KiB (0%) Title : Signs \[BlurayDesuYo\] Language : English Default : Yes Forced : No Text [\#2](//www.nyaa.se/?page=view&tid=2) ID : 6 Format : ASS Codec ID : S\_TEXT/ASS Codec ID/Info : Advanced Sub Station Alpha Duration : 23 min Bit rate : 681 b/s Count of elements : 965 Compression mode : Lossless Stream size : 117 KiB (0%) Title : Subtitles \[BlurayDesuYo\] Language : Japanese Default : No Forced : No Text [\#3](//www.nyaa.se/?page=view&tid=3) ID : 7 Format : PGS Muxing mode : zlib Codec ID : S\_HDMV/PGS Codec ID/Info : Picture based subtitle format used on BDs/HD-DVDs Duration : 23 min Bit rate : 731 b/s Count of elements : 32 Stream size : 124 KiB (0%) Title : Signs \[Funimation\] Language : English Default : No Forced : No Text [\#4](//www.nyaa.se/?page=view&tid=4) ID : 8 Format : PGS Muxing mode : zlib Codec ID : S\_HDMV/PGS Codec ID/Info : Picture based subtitle format used on BDs/HD-DVDs Duration : 23 min Bit rate : 14.9 kb/s Count of elements : 771 Stream size : 2.49 MiB (0%) Title : Subtitles \[Funimation\] Language : Japanese Default : No Forced : No Menu 00:00:00.033 : en:Prologue 00:00:41.020 : en:Part A 00:09:45.230 : en:Part B 00:21:58.000 : en:OP 00:23:30.970 : en:Preview **CTR Releases:** Collecting the best available sources around the internet and packing them up so you don't have to. My releases cater specifically to English audio viewers, though Japanese viewers are of course welcome. More details can be found on the individual release threads or at [my index](http://kametsu.com/topic/54803-the-ctr-index-your-new-home-for-bloated-1080p-dual-audio-releases/) on Kametsu, where you can also pitch me on whatever shows I go after next. Enjoy. -ctr

File list

  • Maria.the.Virgin.Witch.S01.1080p-Hi10p.BluRay.FLAC5.1.x264-CTR
    • Maria.the.Virgin.Witch.S01E01.1080p-Hi10p.BluRay.FLAC5.1.x264-CTR.[BA8855C9].mkv (1.8 GiB)
    • Maria.the.Virgin.Witch.S01E02.1080p-Hi10p.BluRay.FLAC5.1.x264-CTR.[1290CB2C].mkv (1.7 GiB)
    • Maria.the.Virgin.Witch.S01E03.1080p-Hi10p.BluRay.FLAC5.1.x264-CTR.[75545B93].mkv (1.6 GiB)
    • Maria.the.Virgin.Witch.S01E04.1080p-Hi10p.BluRay.FLAC5.1.x264-CTR.[D7195579].mkv (1.5 GiB)
    • Maria.the.Virgin.Witch.S01E05.1080p-Hi10p.BluRay.FLAC5.1.x264-CTR.[45D617B3].mkv (1.5 GiB)
    • Maria.the.Virgin.Witch.S01E06.1080p-Hi10p.BluRay.FLAC5.1.x264-CTR.[E17DC5CC].mkv (1.6 GiB)
    • Maria.the.Virgin.Witch.S01E07.1080p-Hi10p.BluRay.FLAC5.1.x264-CTR.[482F4DFD].mkv (1.7 GiB)
    • Maria.the.Virgin.Witch.S01E08.1080p-Hi10p.BluRay.FLAC5.1.x264-CTR.[BA379DA1].mkv (1.8 GiB)
    • Maria.the.Virgin.Witch.S01E09.1080p-Hi10p.BluRay.FLAC5.1.x264-CTR.[56DDEDD2].mkv (2.2 GiB)
    • Maria.the.Virgin.Witch.S01E10.1080p-Hi10p.BluRay.FLAC5.1.x264-CTR.[5728F58F].mkv (1.9 GiB)
    • Maria.the.Virgin.Witch.S01E11.1080p-Hi10p.BluRay.FLAC5.1.x264-CTR.[3F09E9A3].mkv (1.7 GiB)
    • Maria.the.Virgin.Witch.S01E12.1080p-Hi10p.BluRay.FLAC5.1.x264-CTR.[68B84ECB].mkv (1.7 GiB)