Maria the Virgin Witch S01 720p Hi10p BluRay AAC5.1 x264 [CTR] (English Dubbed Dual Audio) (Junketsu no Maria)

Category:
Date:
2016-09-29 11:23 UTC
Submitter:
Seeders:
3
File size:
7.4 GiB
Completed:
548
Info hash:
0f8e61837298c7e7ccc660742e2adbf44db8fef5
![Image](https://i.gyazo.com/c9b7b7edc960c8235f71bd0faad7c1f8.png) **[←1080p Option](https://www.nyaa.se/?page=view&tid=854849)** **[Release Thread](http://kametsu.com/topic/55711-megatorrent-ctr-maria-the-virgin-witch-bd-720p-10bit-1080p-10bitaac-51-flac-51-dual-audio-really-not-what-i-expected/) | [CTR Release Index](http://kametsu.com/topic/54803-the-ctr-index-your-new-home-for-bloated-1080p-dual-audio-releases/)** _~vivé la france~_ ![Image](http://kametsu.com/images/downloads/info.png) `<br></br>Video Track: 720p-Hi10p | 1080p-Hi10p (BlurayDesuYo)<br></br><br></br>Audio Track 1 (Default): English 5.1 AAC | 5.1 FLAC (Etzimal)<br></br>Audio Track 2: Japanese 2.0 AAC | 2.0 FLAC (BlurayDesuYo)<br></br>Audio Track 3: English Commentary 2.0 AAC | 2.0 FLAC (Etzimal) - S01E01, S01E12<br></br><br></br>Subtitle Track 1 (Default): English Signs (.ASS) (BlurayDesuYo)<br></br>Subtitle Track 2: English Dialogue (.ASS) (BlurayDesuYo)<br></br>Subtitle Track 3: English Signs (Retail) (.PGS) (Funimation)<br></br>Subtitle Track 4: English Subtitles (Retail) (.PGS) (Funimation)<br></br><br></br>Chapters<br></br>` This was done for a request, but this show was not nearly as bad as I expected it to be from the premise and the title. Not great by any stretch of the imagination, but not terrible. All in all I actually enjoyed a fair amount of it, so color me surprised. This release is super straightforward. BlurayDesuYo (DameDesuYo)'s video, both 720p and 1080p, paired with their subtitles. Etzimal-supplied audio, including a commentary track on episodes 1 and 12, and Funimation's official USBD signs/subs as a bonus because why not? Nothing special here. General Unique ID : 203453740635016030551405423709855297901 (0x990FC3E0208560BE9E23CE05386E316D) Complete name : S:\\jails\\rutorrent\\home\\admin\\rtorrent\\downloads\\!ctr\\Maria.the.Virgin.Witch.S01.720p-Hi10p.BluRay.AAC5.1.x264-CTR\\Maria.the.Virgin.Witch.S01E01.720p-Hi10p.BluRay.AAC5.1.x264-CTR.\[2C9E278E\].mkv Format : Matroska Format version : Version 4 / Version 2 File size : 712 MiB Duration : 23 min Overall bit rate : 4 186 kb/s Movie name : Junketsu no Maria - 01 Encoded date : UTC 2016-09-28 22:17:04 Writing application : mkvmerge v9.4.2 ('So High') 64bit Writing library : libebml v1.3.4 + libmatroska v1.4.5 Attachments : CHANCERY.TTF / Dosis-Regular.ttf / LinBiolinum\_R\_0.ttf / BlackBullet-dialogue.otf / CATANBON.TTF Video ID : 1 Format : AVC Format/Info : Advanced Video Codec Format profile : High 10@L5 Format settings, CABAC : Yes Format settings, ReFrames : 16 frames Codec ID : V\_MPEG4/ISO/AVC Duration : 23 min Bit rate : 3 261 kb/s Width : 1 280 pixels Height : 720 pixels Display aspect ratio : 16:9 Frame rate mode : Constant Frame rate : 23.976 (24000/1001) FPS Color space : YUV Chroma subsampling : 4:2:0 Bit depth : 10 bits Scan type : Progressive Bits/(Pixel\*Frame) : 0.148 Stream size : 554 MiB (78%) Title : j Writing library : x264 core 142 r2431+42 c69a006 tMod \[10-bit@all X86\_64\] Encoding settings : cabac=1 / ref=16 / deblock=1:-1:-2 / analyse=0x3:0x133 / me=umh / subme=10 / psy=1 / fade\_compensate=0.50 / psy\_rd=1.05:0.15 / mixed\_ref=1 / me\_range=32 / chroma\_me=1 / trellis=2 / 8x8dct=1 / cqm=0 / deadzone=21,11 / fast\_pskip=0 / chroma\_qp\_offset=-4 / threads=6 / lookahead\_threads=1 / sliced\_threads=0 / nr=0 / decimate=0 / interlaced=0 / bluray\_compat=0 / constrained\_intra=0 / fgo=0 / bframes=10 / b\_pyramid=2 / b\_adapt=2 / b\_bias=0 / direct=1 / weightb=1 / open\_gop=0 / weightp=2 / keyint=250 / keyint\_min=23 / scenecut=40 / intra\_refresh=0 / rc\_lookahead=40 / rc=crf / mbtree=1 / crf=15.5000 / qcomp=0.80 / qpmin=0:0:0 / qpmax=43:43:43 / qpstep=4 / ip\_ratio=1.40 / aq=3:0.95 / aq-sensitivity=10.00 / aq-factor=1.00:1.00:1.00 / aq2=0 / aq3=0 Language : Japanese Default : Yes Forced : No Color range : Limited Matrix coefficients : BT.709 Audio [\#1](//www.nyaa.se/?page=view&tid=1) ID : 2 Format : AAC Format/Info : Advanced Audio Codec Format profile : LC Codec ID : A\_AAC Duration : 23 min Bit rate : 493 kb/s Channel(s) : 6 channels Channel positions : Front: L C R, Side: L R, LFE Sampling rate : 48.0 kHz Frame rate : 46.875 FPS (1024 spf) Compression mode : Lossy Delay relative to video : 1 ms Stream size : 83.9 MiB (12%) Title : e Language : English Default : Yes Forced : No Audio [\#2](//www.nyaa.se/?page=view&tid=2) ID : 3 Format : AAC Format/Info : Advanced Audio Codec Format profile : LC Codec ID : A\_AAC Duration : 23 min Bit rate : 288 kb/s Channel(s) : 2 channels Channel positions : Front: L R Sampling rate : 48.0 kHz Frame rate : 46.875 FPS (1024 spf) Compression mode : Lossy Stream size : 48.8 MiB (7%) Title : Episode Language : Japanese Default : No Forced : No Audio [\#3](//www.nyaa.se/?page=view&tid=3) ID : 4 Format : AAC Format/Info : Advanced Audio Codec Format profile : LC Codec ID : A\_AAC Duration : 23 min Bit rate : 120 kb/s Channel(s) : 2 channels Channel positions : Front: L R Sampling rate : 48.0 kHz Frame rate : 46.875 FPS (1024 spf) Compression mode : Lossy Delay relative to video : 1 ms Stream size : 20.4 MiB (3%) Title : ec Language : English Default : No Forced : No Text [\#1](//www.nyaa.se/?page=view&tid=1) ID : 5 Format : ASS Codec ID : S\_TEXT/ASS Codec ID/Info : Advanced Sub Station Alpha Duration : 23 min Bit rate : 540 b/s Count of elements : 576 Compression mode : Lossless Stream size : 91.4 KiB (0%) Title : Signs \[BlurayDesuYo\] Language : English Default : Yes Forced : No Text [\#2](//www.nyaa.se/?page=view&tid=2) ID : 6 Format : ASS Codec ID : S\_TEXT/ASS Codec ID/Info : Advanced Sub Station Alpha Duration : 23 min Bit rate : 681 b/s Count of elements : 965 Compression mode : Lossless Stream size : 117 KiB (0%) Title : Subtitles \[BlurayDesuYo\] Language : Japanese Default : No Forced : No Text [\#3](//www.nyaa.se/?page=view&tid=3) ID : 7 Format : PGS Muxing mode : zlib Codec ID : S\_HDMV/PGS Codec ID/Info : Picture based subtitle format used on BDs/HD-DVDs Duration : 23 min Bit rate : 731 b/s Count of elements : 32 Stream size : 124 KiB (0%) Title : Signs \[Funimation\] Language : English Default : No Forced : No Text [\#4](//www.nyaa.se/?page=view&tid=4) ID : 8 Format : PGS Muxing mode : zlib Codec ID : S\_HDMV/PGS Codec ID/Info : Picture based subtitle format used on BDs/HD-DVDs Duration : 23 min Bit rate : 14.9 kb/s Count of elements : 771 Stream size : 2.49 MiB (0%) Title : Subtitles \[Funimation\] Language : Japanese Default : No Forced : No Menu 00:00:00.033 : en:Prologue 00:00:41.020 : en:Part A 00:09:45.230 : en:Part B 00:21:58.000 : en:OP 00:23:30.970 : en:Preview **CTR Releases:** Collecting the best available sources around the internet and packing them up so you don't have to. My releases cater specifically to English audio viewers, though Japanese viewers are of course welcome. More details can be found on the individual release threads or at [my index](http://kametsu.com/topic/54803-the-ctr-index-your-new-home-for-bloated-1080p-dual-audio-releases/) on Kametsu, where you can also pitch me on whatever shows I go after next. Enjoy. -ctr

File list

  • Maria.the.Virgin.Witch.S01.720p-Hi10p.BluRay.AAC5.1.x264-CTR
    • Maria.the.Virgin.Witch.S01E01.720p-Hi10p.BluRay.AAC5.1.x264-CTR.[2C9E278E].mkv (712.1 MiB)
    • Maria.the.Virgin.Witch.S01E02.720p-Hi10p.BluRay.AAC5.1.x264-CTR.[744BF2FC].mkv (637.5 MiB)
    • Maria.the.Virgin.Witch.S01E03.720p-Hi10p.BluRay.AAC5.1.x264-CTR.[65442963].mkv (606.6 MiB)
    • Maria.the.Virgin.Witch.S01E04.720p-Hi10p.BluRay.AAC5.1.x264-CTR.[98FDB5A7].mkv (569.1 MiB)
    • Maria.the.Virgin.Witch.S01E05.720p-Hi10p.BluRay.AAC5.1.x264-CTR.[81947B6A].mkv (568.0 MiB)
    • Maria.the.Virgin.Witch.S01E06.720p-Hi10p.BluRay.AAC5.1.x264-CTR.[B0A5FBF8].mkv (594.6 MiB)
    • Maria.the.Virgin.Witch.S01E07.720p-Hi10p.BluRay.AAC5.1.x264-CTR.[3C1B895A].mkv (629.7 MiB)
    • Maria.the.Virgin.Witch.S01E08.720p-Hi10p.BluRay.AAC5.1.x264-CTR.[EDD3ACB5].mkv (675.8 MiB)
    • Maria.the.Virgin.Witch.S01E09.720p-Hi10p.BluRay.AAC5.1.x264-CTR.[74BA423D].mkv (657.8 MiB)
    • Maria.the.Virgin.Witch.S01E10.720p-Hi10p.BluRay.AAC5.1.x264-CTR.[73E99E4B].mkv (638.1 MiB)
    • Maria.the.Virgin.Witch.S01E11.720p-Hi10p.BluRay.AAC5.1.x264-CTR.[77E0B7A2].mkv (638.0 MiB)
    • Maria.the.Virgin.Witch.S01E12.720p-Hi10p.BluRay.AAC5.1.x264-CTR.[21E295CF].mkv (638.0 MiB)