Bodacious Space Pirates S01 720p Hi10p BluRay AAC2.0 x264 [CTR] (English Dubbed Dual Audio) (Mouretsu Pirates)

Category:
Date:
2016-09-29 02:34 UTC
Submitter:
Seeders:
1
File size:
11.1 GiB
Completed:
840
Info hash:
17274b64fb8486ada83188174e9ce268f0c88f3b
![Image](https://i.gyazo.com/b7c89c94f7518a20df797360a7608a9c.png) **[➙1080p Option](https://www.nyaa.se/?page=view&tid=854708)** **[Release Thread](http://kametsu.com/topic/55706-megatorrent-ctr-bodacious-space-pirates-bd-720p-10bit-1080p-10bitaac-20-flac-20-dual-audio-no-etzimal-im-not-going-to-say-it/) | [CTR Release Index](http://kametsu.com/topic/54803-the-ctr-index-your-new-home-for-bloated-1080p-dual-audio-releases/)** _~RAGE~_ ![Image](http://kametsu.com/images/downloads/info.png) `<br></br>Video Track: 720p-Hi10p (WhyNot)<br></br><br></br>Audio Track 1 (Default): English 2.0 AAC (Raizel)<br></br>Audio Track 2: Japanese 2.0 AAC (WhyNot)<br></br><br></br>Subtitle Track 1 (Default): English Signs (.ASS) (WhyNotEtzimal?)<br></br>Subtitle Track 2: English Dialogue (.ASS) (WhyNotEtzimal?)<br></br><br></br>Chapters<br></br>` honestly I wasn't really big on this show, but I live to fill requests for strangers on the Internet. WhyNot video and subtitles today, using their final JPBD batch, for 1080p and 720p both. We compared it to Raizel, Shiro and Coalgirls' releases and found their quality to be equivalent or superior. In addition, I've included new OP karaoke and kfx, created by Etzimal here at Kametsu. Audio came from Raizel's release, which I then converted to AAC for the 720p here. Enjoy. General Unique ID : 217198337064900568477125432803230322893 (0xA366E0CCA1DB6D628CA78E8B6C0D90CD) Complete name : S:\\jails\\rutorrent\\home\\admin\\rtorrent\\downloads\\!ctr\\Bodacious.Space.Pirates.S01.720p-Hi10p.BluRay.AAC2.0.x264-CTR\\Bodacious.Space.Pirates.S01E01.720p-Hi10p.BluRay.AAC2.0.x264-CTR.\[F70F31B5\].mkv Format : Matroska Format version : Version 4 / Version 2 File size : 459 MiB Duration : 24 min Overall bit rate : 2 654 kb/s Encoded date : UTC 2016-09-28 20:15:01 Writing application : mkvmerge v9.4.2 ('So High') 64bit Writing library : libebml v1.3.4 + libmatroska v1.4.5 Attachments : calibri.ttf / CALLIGRA.TTF / HURTM\_\_.otf / Interstate-Regular.ttf / JAPAB.TTF / LEVIBRUSH.TTF / mangolov.ttf / Sony\_Sketch.ttf / TT1139M.TTF / arabtype.ttf / BAARS.TTF / billy bears crayons.ttf / blue highway rg.otf / bluehigh.ttf / Barthowheel Regular.ttf / ARCENA.ttf / Birdie.ttf / calibri.ttf / Complete in Him.ttf / erasdus0.ttf / Essai.ttf / fading-wornarmychalk-regular.ttf / FRADM.TTF / gather.ttf / GOTHIC.TTF / HammerSickle.ttf / HARLC\_\_.TTF / horizon-bt.ttf / Interstate Regular.ttf / lelim.ttf / LHANDW.TTF / LSANS.TTF / LT.ttf / LT\_3italic.ttf / opens\_.ttf / PAINP.TTF / Photonica\_regular.ttf / POORICH.TTF / Prototype.ttf / wingding.ttf Video ID : 1 Format : AVC Format/Info : Advanced Video Codec Format profile : High 10@L5.1 Format settings, CABAC : Yes Format settings, ReFrames : 16 frames Codec ID : V\_MPEG4/ISO/AVC Duration : 24 min Bit rate : 2 168 kb/s Width : 1 280 pixels Height : 720 pixels Display aspect ratio : 16:9 Frame rate mode : Constant Frame rate : 23.976 (24000/1001) FPS Color space : YUV Chroma subsampling : 4:2:0 Bit depth : 10 bits Scan type : Progressive Bits/(Pixel\*Frame) : 0.098 Stream size : 375 MiB (82%) Title : j Writing library : x264 core 120 r2146+650 183470d Encoding settings : cabac=1 / ref=16 / deblock=1:1:1 / analyse=0x3:0x133 / me=umh / subme=11 / psy=1 / fade\_compensate=0.70 / psy\_rd=0.40:0.00 / mixed\_ref=1 / me\_range=32 / chroma\_me=1 / trellis=2 / 8x8dct=1 / cqm=0 / deadzone=21,11 / fast\_pskip=0 / chroma\_qp\_offset=-4 / threads=18 / sliced\_threads=0 / nr=0 / decimate=1 / interlaced=0 / bluray\_compat=0 / constrained\_intra=0 / fgo=0 / bframes=10 / b\_pyramid=2 / b\_adapt=2 / b\_bias=0 / direct=1 / weightb=1 / open\_gop=0 / weightp=2 / keyint=300 / keyint\_min=24 / scenecut=48 / intra\_refresh=0 / rc\_lookahead=60 / rc=crf / mbtree=1 / crf=16.0 / qcomp=0.70 / qpmin=10 / qpmax=30 / qpstep=4 / ip\_ratio=1.40 / aq=2:1.00 Language : Japanese Default : Yes Forced : No Color range : Limited Color primaries : BT.709 Transfer characteristics : BT.709 Matrix coefficients : BT.709 Audio [\#1](//www.nyaa.se/?page=view&tid=1) ID : 2 Format : AAC Format/Info : Advanced Audio Codec Format profile : LC Codec ID : A\_AAC Duration : 24 min Bit rate : 155 kb/s Channel(s) : 2 channels Channel positions : Front: L R Sampling rate : 48.0 kHz Frame rate : 46.875 FPS (1024 spf) Compression mode : Lossy Delay relative to video : 17 ms Stream size : 26.9 MiB (6%) Title : e Language : English Default : Yes Forced : No Audio [\#2](//www.nyaa.se/?page=view&tid=2) ID : 3 Format : AAC Format/Info : Advanced Audio Codec Format profile : LC Codec ID : A\_AAC Duration : 24 min Bit rate : 298 kb/s Channel(s) : 2 channels Channel positions : Front: L R Sampling rate : 48.0 kHz Frame rate : 46.875 FPS (1024 spf) Compression mode : Lossy Stream size : 51.6 MiB (11%) Title : j Language : Japanese Default : No Forced : No Text [\#1](//www.nyaa.se/?page=view&tid=1) ID : 4 Format : ASS Codec ID : S\_TEXT/ASS Codec ID/Info : Advanced Sub Station Alpha Duration : 23 min Bit rate : 2 005 b/s Count of elements : 2701 Compression mode : Lossless Stream size : 346 KiB (0%) Title : Signs \[WhyNot/Etzimal\] Language : English Default : Yes Forced : No Text [\#2](//www.nyaa.se/?page=view&tid=2) ID : 5 Format : ASS Codec ID : S\_TEXT/ASS Codec ID/Info : Advanced Sub Station Alpha Duration : 24 min Bit rate : 2 082 b/s Count of elements : 3069 Compression mode : Lossless Stream size : 368 KiB (0%) Title : Subtitles \[WhyNot/Etzimal\] Language : Japanese Default : No Forced : No Menu 00:00:00.000 : en:Intro 00:01:00.894 : en:Opening 00:02:30.942 : en:Part A 00:11:34.985 : en:Part B 00:22:05.240 : en:Ending 00:23:35.038 : en:Preview **CTR Releases:** Collecting the best available sources around the internet and packing them up so you don't have to. My releases cater specifically to English audio viewers, though Japanese viewers are of course welcome. More details can be found on the individual release threads or at [my index](http://kametsu.com/topic/54803-the-ctr-index-your-new-home-for-bloated-1080p-dual-audio-releases/) on Kametsu, where you can also pitch me on whatever shows I go after next. Enjoy. -ctr

File list

  • Bodacious.Space.Pirates.S01.720p-Hi10p.BluRay.AAC2.0.x264-CTR
    • Bodacious.Space.Pirates.S01E01.720p-Hi10p.BluRay.AAC2.0.x264-CTR.[F70F31B5].mkv (459.4 MiB)
    • Bodacious.Space.Pirates.S01E02.720p-Hi10p.BluRay.AAC2.0.x264-CTR.[94095E44].mkv (432.5 MiB)
    • Bodacious.Space.Pirates.S01E03.720p-Hi10p.BluRay.AAC2.0.x264-CTR.[9C653DA1].mkv (394.3 MiB)
    • Bodacious.Space.Pirates.S01E04.720p-Hi10p.BluRay.AAC2.0.x264-CTR.[70378DA6].mkv (407.2 MiB)
    • Bodacious.Space.Pirates.S01E05.720p-Hi10p.BluRay.AAC2.0.x264-CTR.[1048A300].mkv (520.1 MiB)
    • Bodacious.Space.Pirates.S01E06.720p-Hi10p.BluRay.AAC2.0.x264-CTR.[D7EC5597].mkv (474.0 MiB)
    • Bodacious.Space.Pirates.S01E07.720p-Hi10p.BluRay.AAC2.0.x264-CTR.[8A0F9487].mkv (448.2 MiB)
    • Bodacious.Space.Pirates.S01E08.720p-Hi10p.BluRay.AAC2.0.x264-CTR.[1038CDA2].mkv (370.0 MiB)
    • Bodacious.Space.Pirates.S01E09.720p-Hi10p.BluRay.AAC2.0.x264-CTR.[41089181].mkv (370.8 MiB)
    • Bodacious.Space.Pirates.S01E10.720p-Hi10p.BluRay.AAC2.0.x264-CTR.[96E10BCA].mkv (582.9 MiB)
    • Bodacious.Space.Pirates.S01E11.720p-Hi10p.BluRay.AAC2.0.x264-CTR.[F701C73B].mkv (519.8 MiB)
    • Bodacious.Space.Pirates.S01E12.720p-Hi10p.BluRay.AAC2.0.x264-CTR.[A17C5036].mkv (464.5 MiB)
    • Bodacious.Space.Pirates.S01E13.720p-Hi10p.BluRay.AAC2.0.x264-CTR.[92E3EB92].mkv (350.3 MiB)
    • Bodacious.Space.Pirates.S01E14.720p-Hi10p.BluRay.AAC2.0.x264-CTR.[0608D378].mkv (357.6 MiB)
    • Bodacious.Space.Pirates.S01E15.720p-Hi10p.BluRay.AAC2.0.x264-CTR.[9B05CDFD].mkv (379.9 MiB)
    • Bodacious.Space.Pirates.S01E16.720p-Hi10p.BluRay.AAC2.0.x264-CTR.[84D15413].mkv (313.5 MiB)
    • Bodacious.Space.Pirates.S01E17.720p-Hi10p.BluRay.AAC2.0.x264-CTR.[18B54023].mkv (359.6 MiB)
    • Bodacious.Space.Pirates.S01E18.720p-Hi10p.BluRay.AAC2.0.x264-CTR.[DA864032].mkv (424.3 MiB)
    • Bodacious.Space.Pirates.S01E19.720p-Hi10p.BluRay.AAC2.0.x264-CTR.[08C60256].mkv (343.2 MiB)
    • Bodacious.Space.Pirates.S01E20.720p-Hi10p.BluRay.AAC2.0.x264-CTR.[DC23310D].mkv (431.0 MiB)
    • Bodacious.Space.Pirates.S01E21.720p-Hi10p.BluRay.AAC2.0.x264-CTR.[CC7BC2DF].mkv (589.1 MiB)
    • Bodacious.Space.Pirates.S01E22.720p-Hi10p.BluRay.AAC2.0.x264-CTR.[91A4103E].mkv (477.3 MiB)
    • Bodacious.Space.Pirates.S01E23.720p-Hi10p.BluRay.AAC2.0.x264-CTR.[0C3B413D].mkv (500.2 MiB)
    • Bodacious.Space.Pirates.S01E24.720p-Hi10p.BluRay.AAC2.0.x264-CTR.[FE6FE37A].mkv (443.0 MiB)
    • Bodacious.Space.Pirates.S01E25.720p-Hi10p.BluRay.AAC2.0.x264-CTR.[7B840A34].mkv (397.7 MiB)
    • Bodacious.Space.Pirates.S01E26.720p-Hi10p.BluRay.AAC2.0.x264-CTR.[83998793].mkv (561.0 MiB)
Thanks for sharing