Bodacious Space Pirates S01 1080p Hi10p BluRay FLAC2.0 x264 [CTR] (English Dubbed Dual Audio) (Mouretsu Pirates)

Category:
Date:
2016-09-29 02:33 UTC
Submitter:
Seeders:
1
File size:
27.9 GiB
Completed:
96
Info hash:
233b736773e5da01792644495ab6c6f4e9aa6770
![Image](https://i.gyazo.com/b7c89c94f7518a20df797360a7608a9c.png) **[➙720p Option](https://www.nyaa.se/?page=view&tid=854709)** **[Release Thread](http://kametsu.com/topic/55706-megatorrent-ctr-bodacious-space-pirates-bd-720p-10bit-1080p-10bitaac-20-flac-20-dual-audio-no-etzimal-im-not-going-to-say-it/) | [CTR Release Index](http://kametsu.com/topic/54803-the-ctr-index-your-new-home-for-bloated-1080p-dual-audio-releases/)** _~RAGE~_ ![Image](http://kametsu.com/images/downloads/info.png) `<br></br>Video Track: 1080p-Hi10p (WhyNot)<br></br><br></br>Audio Track 1 (Default): English 2.0 FLAC (Raizel)<br></br>Audio Track 2: Japanese 2.0 FLAC (WhyNot)<br></br><br></br>Subtitle Track 1 (Default): English Signs (.ASS) (WhyNotEtzimal?)<br></br>Subtitle Track 2: English Dialogue (.ASS) (WhyNotEtzimal?)<br></br><br></br>Chapters<br></br>` honestly I wasn't really big on this show, but I live to fill requests for strangers on the Internet. WhyNot video and subtitles today, using their final JPBD batch, for 1080p and 720p both. We compared it to Raizel, Shiro and Coalgirls' releases and found their quality to be equivalent or superior. In addition, I've included new OP karaoke and kfx, created by Etzimal here at Kametsu. Audio came from Raizel's release, which I then converted to AAC for the 720p here. Enjoy. General Unique ID : 222405502482664459919214222139514933768 (0xA751BDE03BD64E25BAFBFDAC99ABD208) Complete name : S:\\Anime\\Bodacious Space Pirates\\Bodacious.Space.Pirates.S01.1080p-Hi10p.BluRay.FLAC2.0.x264-CTR\\Bodacious.Space.Pirates.S01E01.1080p-Hi10p.BluRay.FLAC2.0.x264-CTR.\[444BCABF\].mkv Format : Matroska Format version : Version 4 / Version 2 File size : 1.18 GiB Duration : 24 min Overall bit rate mode : Variable Overall bit rate : 6 970 kb/s Encoded date : UTC 2016-09-28 17:33:37 Writing application : mkvmerge v9.4.2 ('So High') 64bit Writing library : libebml v1.3.4 + libmatroska v1.4.5 Attachments : Barthowheel Regular.ttf / blue highway rg.otf / bluehigh.ttf / calibri.ttf / CALLIGRA.TTF / HURTM\_\_.otf / Interstate-Regular.ttf / JAPAB.TTF / LEVIBRUSH.TTF / mangolov.ttf / Sony\_Sketch.ttf / TT1139M.TTF / arabtype.ttf / BAARS.TTF / billy bears crayons.ttf / ARCENA.ttf / Birdie.ttf / calibri.ttf / Complete in Him.ttf / erasdus0.ttf / Essai.ttf / fading-wornarmychalk-regular.ttf / FRADM.TTF / gather.ttf / GOTHIC.TTF / HammerSickle.ttf / HARLC\_\_.TTF / horizon-bt.ttf / Interstate Regular.ttf / lelim.ttf / LHANDW.TTF / LSANS.TTF / LT.ttf / LT\_3italic.ttf / opens\_.ttf / PAINP.TTF / Photonica\_regular.ttf / POORICH.TTF / Prototype.ttf / wingding.ttf Video ID : 1 Format : AVC Format/Info : Advanced Video Codec Format profile : High 10@L5.1 Format settings, CABAC : Yes Format settings, ReFrames : 16 frames Codec ID : V\_MPEG4/ISO/AVC Duration : 24 min Bit rate : 4 896 kb/s Width : 1 920 pixels Height : 1 080 pixels Display aspect ratio : 16:9 Frame rate mode : Constant Frame rate : 23.976 (24000/1001) FPS Color space : YUV Chroma subsampling : 4:2:0 Bit depth : 10 bits Scan type : Progressive Bits/(Pixel\*Frame) : 0.098 Stream size : 846 MiB (70%) Title : \[WhyNot\] Writing library : x264 core 120 r2146+650 183470d Encoding settings : cabac=1 / ref=16 / deblock=1:1:1 / analyse=0x3:0x133 / me=umh / subme=11 / psy=1 / fade\_compensate=0.70 / psy\_rd=0.40:0.00 / mixed\_ref=1 / me\_range=32 / chroma\_me=1 / trellis=2 / 8x8dct=1 / cqm=0 / deadzone=21,11 / fast\_pskip=0 / chroma\_qp\_offset=-4 / threads=18 / sliced\_threads=0 / nr=0 / decimate=1 / interlaced=0 / bluray\_compat=0 / constrained\_intra=0 / fgo=0 / bframes=10 / b\_pyramid=2 / b\_adapt=2 / b\_bias=0 / direct=1 / weightb=1 / open\_gop=0 / weightp=2 / keyint=300 / keyint\_min=24 / scenecut=48 / intra\_refresh=0 / rc\_lookahead=60 / rc=crf / mbtree=1 / crf=16.0 / qcomp=0.70 / qpmin=9 / qpmax=30 / qpstep=4 / ip\_ratio=1.40 / aq=2:1.00 Language : Japanese Default : Yes Forced : No Color range : Limited Color primaries : BT.709 Transfer characteristics : BT.709 Matrix coefficients : BT.709 Audio [\#1](//www.nyaa.se/?page=view&tid=1) ID : 2 Format : FLAC Format/Info : Free Lossless Audio Codec Codec ID : A\_FLAC Duration : 24 min Bit rate mode : Variable Bit rate : 1 424 kb/s Channel(s) : 2 channels Channel positions : Front: L R Sampling rate : 48.0 kHz Frame rate : 11.719 FPS (4096 spf) Bit depth : 24 bits Delay relative to video : 12 ms Stream size : 247 MiB (20%) Title : FLAC 2.0 \[Raizel\] Writing library : libFLAC 1.2.1 (UTC 2007-09-17) Language : English Default : Yes Forced : No Audio [\#2](//www.nyaa.se/?page=view&tid=2) ID : 3 Format : FLAC Format/Info : Free Lossless Audio Codec Codec ID : A\_FLAC Duration : 24 min Bit rate mode : Variable Bit rate : 623 kb/s Channel(s) : 2 channels Channel positions : Front: L R Sampling rate : 48.0 kHz Frame rate : 10.417 FPS (4608 spf) Bit depth : 16 bits Stream size : 108 MiB (9%) Title : FLAC 2.0 \[WhyNot\] Writing library : libFLAC 1.2.1 (UTC 2007-09-17) Language : Japanese Default : No Forced : No Text [\#1](//www.nyaa.se/?page=view&tid=1) ID : 4 Format : ASS Codec ID : S\_TEXT/ASS Codec ID/Info : Advanced Sub Station Alpha Duration : 23 min Bit rate : 2 005 b/s Count of elements : 2701 Compression mode : Lossless Stream size : 346 KiB (0%) Title : Signs \[WhyNot/Etzimal\] Language : English Default : Yes Forced : No Text [\#2](//www.nyaa.se/?page=view&tid=2) ID : 5 Format : ASS Codec ID : S\_TEXT/ASS Codec ID/Info : Advanced Sub Station Alpha Duration : 24 min Bit rate : 2 082 b/s Count of elements : 3069 Compression mode : Lossless Stream size : 368 KiB (0%) Title : Subtitles \[WhyNot/Etzimal\] Language : Japanese Default : No Forced : No Menu 00:00:00.000 : en:Intro 00:01:00.894 : en:Opening 00:02:30.942 : en:Part A 00:11:34.985 : en:Part B 00:22:05.240 : en:Ending 00:23:35.038 : en:Preview **CTR Releases:** Collecting the best available sources around the internet and packing them up so you don't have to. My releases cater specifically to English audio viewers, though Japanese viewers are of course welcome. More details can be found on the individual release threads or at [my index](http://kametsu.com/topic/54803-the-ctr-index-your-new-home-for-bloated-1080p-dual-audio-releases/) on Kametsu, where you can also pitch me on whatever shows I go after next. Enjoy. -ctr

File list

  • Bodacious.Space.Pirates.S01.1080p-Hi10p.BluRay.FLAC2.0.x264-CTR
    • Bodacious.Space.Pirates.S01E01.1080p-Hi10p.BluRay.FLAC2.0.x264-CTR.[444BCABF].mkv (1.2 GiB)
    • Bodacious.Space.Pirates.S01E02.1080p-Hi10p.BluRay.FLAC2.0.x264-CTR.[2C88409F].mkv (1.2 GiB)
    • Bodacious.Space.Pirates.S01E03.1080p-Hi10p.BluRay.FLAC2.0.x264-CTR.[EDEBE0C6].mkv (1.2 GiB)
    • Bodacious.Space.Pirates.S01E04.1080p-Hi10p.BluRay.FLAC2.0.x264-CTR.[7D5B0C33].mkv (1.2 GiB)
    • Bodacious.Space.Pirates.S01E05.1080p-Hi10p.BluRay.FLAC2.0.x264-CTR.[FB07F8A7].mkv (1.3 GiB)
    • Bodacious.Space.Pirates.S01E06.1080p-Hi10p.BluRay.FLAC2.0.x264-CTR.[C88C3919].mkv (1.1 GiB)
    • Bodacious.Space.Pirates.S01E07.1080p-Hi10p.BluRay.FLAC2.0.x264-CTR.[790999C2].mkv (1.1 GiB)
    • Bodacious.Space.Pirates.S01E08.1080p-Hi10p.BluRay.FLAC2.0.x264-CTR.[1F4E4816].mkv (930.0 MiB)
    • Bodacious.Space.Pirates.S01E09.1080p-Hi10p.BluRay.FLAC2.0.x264-CTR.[49B65E72].mkv (930.4 MiB)
    • Bodacious.Space.Pirates.S01E10.1080p-Hi10p.BluRay.FLAC2.0.x264-CTR.[3CF4ABBA].mkv (1.4 GiB)
    • Bodacious.Space.Pirates.S01E11.1080p-Hi10p.BluRay.FLAC2.0.x264-CTR.[796EBE5D].mkv (1.2 GiB)
    • Bodacious.Space.Pirates.S01E12.1080p-Hi10p.BluRay.FLAC2.0.x264-CTR.[A52D531C].mkv (1.1 GiB)
    • Bodacious.Space.Pirates.S01E13.1080p-Hi10p.BluRay.FLAC2.0.x264-CTR.[5D5B3B93].mkv (852.3 MiB)
    • Bodacious.Space.Pirates.S01E14.1080p-Hi10p.BluRay.FLAC2.0.x264-CTR.[15FD3677].mkv (902.9 MiB)
    • Bodacious.Space.Pirates.S01E15.1080p-Hi10p.BluRay.FLAC2.0.x264-CTR.[5EA1BA7F].mkv (953.6 MiB)
    • Bodacious.Space.Pirates.S01E16.1080p-Hi10p.BluRay.FLAC2.0.x264-CTR.[8BF56F55].mkv (819.2 MiB)
    • Bodacious.Space.Pirates.S01E17.1080p-Hi10p.BluRay.FLAC2.0.x264-CTR.[628ECA48].mkv (913.5 MiB)
    • Bodacious.Space.Pirates.S01E18.1080p-Hi10p.BluRay.FLAC2.0.x264-CTR.[B0C062B6].mkv (1.0 GiB)
    • Bodacious.Space.Pirates.S01E19.1080p-Hi10p.BluRay.FLAC2.0.x264-CTR.[018ADAF0].mkv (875.7 MiB)
    • Bodacious.Space.Pirates.S01E20.1080p-Hi10p.BluRay.FLAC2.0.x264-CTR.[4A23D527].mkv (1.0 GiB)
    • Bodacious.Space.Pirates.S01E21.1080p-Hi10p.BluRay.FLAC2.0.x264-CTR.[E1521DAC].mkv (1.3 GiB)
    • Bodacious.Space.Pirates.S01E22.1080p-Hi10p.BluRay.FLAC2.0.x264-CTR.[87286EF5].mkv (1.1 GiB)
    • Bodacious.Space.Pirates.S01E23.1080p-Hi10p.BluRay.FLAC2.0.x264-CTR.[E1820A81].mkv (1.2 GiB)
    • Bodacious.Space.Pirates.S01E24.1080p-Hi10p.BluRay.FLAC2.0.x264-CTR.[87B27EB6].mkv (1.1 GiB)
    • Bodacious.Space.Pirates.S01E25.1080p-Hi10p.BluRay.FLAC2.0.x264-CTR.[375D6990].mkv (996.4 MiB)
    • Bodacious.Space.Pirates.S01E26.1080p-Hi10p.BluRay.FLAC2.0.x264-CTR.[C0EFFA7B].mkv (1.3 GiB)