Gungrave S01 540p Hi10p BluRay AAC5.1 x264 [CTR] (English Dubbed Dual Audio)

Category:
Date:
2016-09-28 12:50 UTC
Submitter:
Seeders:
6
File size:
12.3 GiB
Completed:
1090
Info hash:
cc0a9917fd4aa0491ea4cb79b780b704027befd5
![Image](https://i.gyazo.com/0d401770bb39409a378521402715a1f6.png) **[Release Thread](http://kametsu.com/topic/55437-megatorrent-ctr-gungrave-540p-hi10paac-51-dual-audio-now-complete-ordered-chapters-suck-catar-hates-life-take-this-and-enjoy-it/) | [CTR Release Index](http://kametsu.com/topic/54803-the-ctr-index-your-new-home-for-bloated-1080p-dual-audio-releases/)** _~surprise sci-fi~_ ![Image](http://kametsu.com/images/downloads/info.png) `<br></br>Video Track: 540p-Hi10p (Yellow-Flash) (OC removed)<br></br><br></br>Audio Track 1 (Default): English 5.1 AAC (CTR / Etzimal)<br></br>Audio Track 2: Japanese 5.1 AAC (Yellow-Flash)<br></br><br></br>Subtitle Track 1 (Default): English Signs (.ASS) (Yellow-Flash - retimed for non-OC)<br></br>Subtitle Track 2: English Dialogue (.ASS) (Yellow-Flash - retimed for non-OC)<br></br><br></br>Chapters<br></br>` Yellow-Flash had the best encode for this series, a special (and weird) 540p 10bit encode from the BluRay release. I've brought fresh 5.1 AAC audio from the USBD as well, converted down and edited to match their release. Ordered chapters were removed and the audio properly retimed to match. In addition, I've repaired the slight error at the very end of the series, removing the erroneous ED and fixing the end of their audio. Thanks as usual to Etzimal for the audio supply, and thanks to Koby for supplying the last few frames of video for the final episode to fix Yellow-Flash's encode. General Unique ID :236402004166527314300587018094950246403 (0xB1D95EB00BBF76E6A7F115DDFAAC6803) Complete name :J:\\animework\\gungrave\\unlinkedyf\\Gungrave.S01E01.540p-Hi10p.BluRay.AAC5.1.x264-CTR.\[03966F75\].mkv Format :Matroska Format version :Version 4 / Version 2 File size :516 MiB Duration :24 min Overall bit rate :2 991 kb/s Movie name :Gungrave Encoded date :UTC 2016-09-09 06:06:46 Writing application :mkvmerge v9.4.0 ('Knurl') 64bit Writing library :libebml v1.3.4 + libmatroska v1.4.5 Attachments :ambulance\_shotgun.ttf / Anger is a gift.ttf / CALIBRI.TTF / nyala.ttf / DARK11\_.ttf / PFScandalPro-Bold.ttf Video ID :1 Format :AVC Format/Info :Advanced Video Codec Format profile :High 10@L5.1 Format settings, CABAC :Yes Format settings, ReFrames :16 frames Codec ID :V\_MPEG4/ISO/AVC Duration :24 min Bit rate :1 866 kb/s Width :960 pixels Height :540 pixels Display aspect ratio :16:9 Frame rate mode :Variable Frame rate :29.157 FPS Original frame rate :29.970 (30000/1001) FPS Color space :YUV Chroma subsampling :4:2:0 Bit depth :10 bits Scan type :Progressive Bits/(Pixel\*Frame) :0.123 Stream size :322 MiB (62%) Title :Yellow-Flash Writing library :x264 core 138 r2359+704+48 3f879a0 tMod \[10-bit@all X86\_64\] Encoding settings :cabac=1 / ref=16 / deblock=1:-1:-1 / analyse=0x3:0x133 / me=umh / subme=10 / psy=1 / fade\_compensate=0.60 / psy\_rd=1.00:0.06 / mixed\_ref=1 / me\_range=24 / chroma\_me=1 / trellis=2 / 8x8dct=1 / cqm=0 / deadzone=21,11 / fast\_pskip=1 / chroma\_qp\_offset=-3 / threads=12 / lookahead\_threads=2 / sliced\_threads=0 / nr=0 / decimate=1 / interlaced=0 / bluray\_compat=0 / constrained\_intra=0 / fgo=0 / bframes=8 / b\_pyramid=2 / b\_adapt=2 / b\_bias=0 / direct=3 / weightb=1 / open\_gop=0 / weightp=2 / keyint=250 / keyint\_min=25 / scenecut=50 / intra\_refresh=0 / rc\_lookahead=60 / rc=crf / mbtree=1 / crf=14.0000 / qcomp=0.60 / qpmin=0:0:0 / qpmax=81:81:81 / qpstep=4 / ip\_ratio=1.40 / aq=1:0.90 / aq-sensitivity=10.00 / aq-factor=1.00:1.00:1.00 / aq2=0 / aq3=0 Language :Japanese Default :No Forced :No Color range :Limited Matrix coefficients :BT.709 Audio [\#1](//www.nyaa.se/?page=view&tid=1) ID :2 Format :AAC Format/Info :Advanced Audio Codec Format profile :LC Codec ID :A\_AAC Duration :24 min Bit rate :468 kb/s Channel(s) :6 channels Channel positions :Front: L C R, Side: L R, LFE Sampling rate :48.0 kHz Frame rate :46.875 FPS (1024 spf) Compression mode :Lossy Delay relative to video :20 ms Stream size :80.6 MiB (16%) Title :AAC 5.1 \[CTR\] Language :English Default :Yes Forced :No Audio [\#2](//www.nyaa.se/?page=view&tid=2) ID :3 Format :AAC Format/Info :Advanced Audio Codec Format profile :LC Codec ID :A\_AAC Duration :24 min Bit rate :644 kb/s Channel(s) :6 channels Channel positions :Front: L C R, Side: L R, LFE Sampling rate :48.0 kHz Frame rate :46.875 FPS (1024 spf) Compression mode :Lossy Stream size :111 MiB (22%) Title :AAC 5.1 \[Yellow-Flash\] Language :Japanese Default :No Forced :No Text [\#1](//www.nyaa.se/?page=view&tid=1) ID :4 Format :ASS Codec ID :S\_TEXT/ASS Codec ID/Info :Advanced Sub Station Alpha Duration :19 min Bit rate :9 b/s Count of elements :23 Compression mode :Lossless Stream size :1.43 KiB (0%) Title :Signs \[Yellow-Flash\] Language :English Default :Yes Forced :No Text [\#2](//www.nyaa.se/?page=view&tid=2) ID :5 Format :ASS Codec ID :S\_TEXT/ASS Codec ID/Info :Advanced Sub Station Alpha Duration :23 min Bit rate :50 b/s Count of elements :153 Compression mode :Lossless Stream size :8.81 KiB (0%) Title :Subtitles \[Yellow-Flash\] Language :Japanese Default :No Forced :No Menu 00:00:00.000 ::Opening 00:02:32.019 ::OP 00:04:12.052 ::Part A 00:12:03.990 ::Part B 00:22:35.020 ::ED **CTR Releases:** Collecting the best available sources around the internet and packing them up so you don't have to. My releases cater specifically to English audio viewers, though Japanese viewers are of course welcome. More details can be found on the individual release threads or at [my index](http://kametsu.com/topic/54803-the-ctr-index-your-new-home-for-bloated-1080p-dual-audio-releases/) on Kametsu, where you can also pitch me on whatever shows I go after next. Enjoy. -ctr

File list

  • Gungrave.S01.540p-Hi10p.BluRay.AAC5.1.x264-CTR
    • Gungrave.S01E01.540p-Hi10p.BluRay.AAC5.1.x264-CTR.[03966F75].mkv (515.5 MiB)
    • Gungrave.S01E02.540p-Hi10p.BluRay.AAC5.1.x264-CTR.[5CC6EB56].mkv (490.6 MiB)
    • Gungrave.S01E03.540p-Hi10p.BluRay.AAC5.1.x264-CTR.[9FC52B59].mkv (520.8 MiB)
    • Gungrave.S01E04.540p-Hi10p.BluRay.AAC5.1.x264-CTR.[D02A1257].mkv (487.8 MiB)
    • Gungrave.S01E05.540p-Hi10p.BluRay.AAC5.1.x264-CTR.[9C363EB5].mkv (473.0 MiB)
    • Gungrave.S01E06.540p-Hi10p.BluRay.AAC5.1.x264-CTR.[487AD310].mkv (487.3 MiB)
    • Gungrave.S01E07.540p-Hi10p.BluRay.AAC5.1.x264-CTR.[BEAE345E].mkv (509.3 MiB)
    • Gungrave.S01E08.540p-Hi10p.BluRay.AAC5.1.x264-CTR.[D51EAE82].mkv (457.5 MiB)
    • Gungrave.S01E09.540p-Hi10p.BluRay.AAC5.1.x264-CTR.[C3AE11B4].mkv (475.2 MiB)
    • Gungrave.S01E10.540p-Hi10p.BluRay.AAC5.1.x264-CTR.[8E98AD04].mkv (504.8 MiB)
    • Gungrave.S01E11.540p-Hi10p.BluRay.AAC5.1.x264-CTR.[23F3A5D9].mkv (509.4 MiB)
    • Gungrave.S01E12.540p-Hi10p.BluRay.AAC5.1.x264-CTR.[31FEBA9F].mkv (454.2 MiB)
    • Gungrave.S01E13.540p-Hi10p.BluRay.AAC5.1.x264-CTR.[67C6C1B8].mkv (447.1 MiB)
    • Gungrave.S01E14.540p-Hi10p.BluRay.AAC5.1.x264-CTR.[1E4C1EBE].mkv (468.9 MiB)
    • Gungrave.S01E15.540p-Hi10p.BluRay.AAC5.1.x264-CTR.[09CF4C9A].mkv (454.1 MiB)
    • Gungrave.S01E16.540p-Hi10p.BluRay.AAC5.1.x264-CTR.[AD625A4C].mkv (443.3 MiB)
    • Gungrave.S01E17.540p-Hi10p.BluRay.AAC5.1.x264-CTR.[2704DA0B].mkv (515.8 MiB)
    • Gungrave.S01E18.540p-Hi10p.BluRay.AAC5.1.x264-CTR.[F1153033].mkv (535.0 MiB)
    • Gungrave.S01E19.540p-Hi10p.BluRay.AAC5.1.x264-CTR.[ABD9A529].mkv (553.5 MiB)
    • Gungrave.S01E20.540p-Hi10p.BluRay.AAC5.1.x264-CTR.[93E8BCC7].mkv (501.3 MiB)
    • Gungrave.S01E21.540p-Hi10p.BluRay.AAC5.1.x264-CTR.[921610B2].mkv (468.9 MiB)
    • Gungrave.S01E22.540p-Hi10p.BluRay.AAC5.1.x264-CTR.[AB4AA8BD].mkv (486.5 MiB)
    • Gungrave.S01E23.540p-Hi10p.BluRay.AAC5.1.x264-CTR.[EA5AD708].mkv (519.5 MiB)
    • Gungrave.S01E24.540p-Hi10p.BluRay.AAC5.1.x264-CTR.[F4A96BFB].mkv (504.3 MiB)
    • Gungrave.S01E25.540p-Hi10p.BluRay.AAC5.1.x264-CTR.[DF3AC110].mkv (478.6 MiB)
    • Gungrave.S01E26.540p-Hi10p.BluRay.AAC5.1.x264-CTR.[C30B97CE].mkv (313.9 MiB)
I own the American BD for this series, any idea if this looks better than it? Don't want to waste space, thanks.
@jterra96 This looks much better as it's been filtered to fix the field blending and other issues the American Blu-ray still suffers from.