Moribito Guardian of the Spirit S01 1080p Hi10p BluRay FLAC5.1 x264 [CTR] (English Dubbed Dual Audio) (Seirei no Moribito)

Category:
Date:
2016-09-27 12:42 UTC
Submitter:
Seeders:
0
File size:
49.6 GiB
Completed:
447
Info hash:
31d8c05e0b8a557af5488a7256079510d0e8d5f7
![Image](https://i.gyazo.com/7fef3fdbfacc926c189fb4d2273479bb.png) **[Release Thread](http://kametsu.com/topic/55680-megatorrent-ctr-moribito-guardian-of-the-spirit-bd-1080p-hi10pflac-51-dual-audio-a-modern-classic/) | [CTR Release Index](http://kametsu.com/topic/54803-the-ctr-index-your-new-home-for-bloated-1080p-dual-audio-releases/)** _~a modern classic~_ ![Image](http://kametsu.com/images/downloads/info.png) `<br></br>Video Track: 1080p-Hi10p (Chyrka)<br></br><br></br>Audio Track 1 (Default): English 5.1 FLAC (CTR)<br></br>Audio Track 2: Japanese 5.1 FLAC (Chyrka)<br></br><br></br>Subtitle Track 1 (Default): English Signs (.ASS) (TCL)<br></br>Subtitle Track 2: English Dialogue (.ASS) (TCL)<br></br><br></br>Chapters<br></br>` And now for something a little more serious. Action-oriented high fantasy drama with real stakes, well-sculpted characters and a fantastic strong female lead character? This show is just wonderful. Today we have Chyrka's 1080p release, which I found to be the best available video quality. The audio is a brand new 5.1 lossless rip done by me from the USBDs, with signs and subtitles coming from TCL (which are an edit/restyling of the official R1 script). Nothing too special about this release, but this series is very special otherwise, so grab it up, friends. General Unique ID : 245407673607069495668913993651884957413 (0xB89FCC78CC353A63BE4C9F4340E09EE5) Complete name : S:\\Anime\\Moribito - Guardian of the Spirit\\Moribito.Guardian.of.the.Spirit.S01.1080p-Hi10p.BluRay.FLAC5.1.x264-CTR\\Moribito.Guardian.of.the.Spirit.S01E01.1080p-Hi10p.BluRay.FLAC5.1.x264-CTR.\[4790D504\].mkv Format : Matroska Format version : Version 4 / Version 2 File size : 1.99 GiB Duration : 25 min Overall bit rate mode : Variable Overall bit rate : 11.4 Mb/s Encoded date : UTC 2016-09-25 05:20:11 Writing application : mkvmerge v9.4.2 ('So High') 64bit Writing library : libebml v1.3.4 + libmatroska v1.4.5 Attachments : CronosPro-Semibold.ttf / nyala.ttf / PISAN.TTF / vibrocentric.ttf / AutographScriptEF-LightAlt-Regular.ttf / DISTInking-Bold.otf / Express.ttf / Gabrielle.ttf / HoboStd.otf / Northwood High.ttf Video ID : 1 Format : AVC Format/Info : Advanced Video Codec Format profile : High 10@L4 Format settings, CABAC : Yes Format settings, ReFrames : 4 frames Codec ID : V\_MPEG4/ISO/AVC Duration : 24 min Bit rate : 8 397 kb/s Width : 1 920 pixels Height : 1 080 pixels Display aspect ratio : 16:9 Frame rate mode : Constant Frame rate : 23.976 (24000/1001) FPS Color space : YUV Chroma subsampling : 4:2:0 Bit depth : 10 bits Scan type : Progressive Bits/(Pixel\*Frame) : 0.169 Stream size : 1.47 GiB (74%) Title : \[Chyrka\] Writing library : x264 core 120 r2164+656 2ff844c Encoding settings : cabac=1 / ref=4 / deblock=1:0:0 / analyse=0x3:0x113 / me=umh / subme=11 / psy=1 / fade\_compensate=0.00 / psy\_rd=1.00:0.05 / mixed\_ref=1 / me\_range=32 / chroma\_me=1 / trellis=2 / 8x8dct=1 / cqm=0 / deadzone=21,11 / fast\_pskip=0 / chroma\_qp\_offset=-3 / threads=12 / sliced\_threads=0 / nr=0 / decimate=1 / interlaced=0 / bluray\_compat=0 / constrained\_intra=0 / fgo=0 / bframes=16 / b\_pyramid=2 / b\_adapt=2 / b\_bias=0 / direct=3 / weightb=1 / open\_gop=0 / weightp=2 / keyint=240 / keyint\_min=12 / scenecut=40 / intra\_refresh=0 / rc\_lookahead=60 / rc=crf / mbtree=0 / crf=16.0 / qcomp=0.60 / qpmin=0 / qpmax=81 / qpstep=4 / vbv\_maxrate=50000 / vbv\_bufsize=62500 / crf\_max=0.0 / nal\_hrd=none / ip\_ratio=1.40 / pb\_ratio=1.30 / aq=3:0.70 Language : English Default : Yes Forced : No Color range : Limited Color primaries : BT.709 Transfer characteristics : BT.709 Matrix coefficients : BT.709 Audio [\#1](//www.nyaa.se/?page=view&tid=1) ID : 2 Format : FLAC Format/Info : Free Lossless Audio Codec Codec ID : A\_FLAC Duration : 25 min Bit rate mode : Variable Bit rate : 1 459 kb/s Channel(s) : 6 channels Channel positions : Front: L C R, Side: L R, LFE Sampling rate : 48.0 kHz Frame rate : 11.719 FPS (4096 spf) Bit depth : 16 bits Stream size : 261 MiB (13%) Title : FLAC 5.1 \[CTR\] Writing library : libFLAC 1.2.1 (UTC 2007-09-17) Language : English Default : Yes Forced : No Audio [\#2](//www.nyaa.se/?page=view&tid=2) ID : 3 Format : FLAC Format/Info : Free Lossless Audio Codec Codec ID : A\_FLAC Duration : 25 min Bit rate mode : Variable Bit rate : 1 529 kb/s Channel(s) : 6 channels Channel positions : Front: L C R, Side: L R, LFE Sampling rate : 48.0 kHz Frame rate : 11.719 FPS (4096 spf) Bit depth : 16 bits Stream size : 273 MiB (13%) Title : FLAC 5.1 \[Chyrka\] Writing library : libFLAC 1.2.1 (UTC 2007-09-17) Language : Japanese Default : No Forced : No Text [\#1](//www.nyaa.se/?page=view&tid=1) ID : 4 Format : ASS Codec ID : S\_TEXT/ASS Codec ID/Info : Advanced Sub Station Alpha Duration : 24 min Bit rate : 22 b/s Count of elements : 52 Compression mode : Lossless Stream size : 4.16 KiB (0%) Title : Signs \[TCL\] Language : English Default : Yes Forced : No Text [\#2](//www.nyaa.se/?page=view&tid=2) ID : 5 Format : ASS Codec ID : S\_TEXT/ASS Codec ID/Info : Advanced Sub Station Alpha Duration : 24 min Bit rate : 98 b/s Count of elements : 268 Compression mode : Lossless Stream size : 17.9 KiB (0%) Title : Subtitles \[TCL\] Language : Japanese Default : No Forced : No Menu 00:00:00.000 : :Opening 00:01:32.009 : :A-part 00:10:59.993 : :Eyecatch 00:11:04.998 : :B-part 00:23:06.969 : :Ending 00:24:42.022 : :Preview **CTR Releases:** Collecting the best available sources around the internet and packing them up so you don't have to. My releases cater specifically to English audio viewers, though Japanese viewers are of course welcome. More details can be found on the individual release threads or at [my index](http://kametsu.com/topic/54803-the-ctr-index-your-new-home-for-bloated-1080p-dual-audio-releases/) on Kametsu, where you can also pitch me on whatever shows I go after next. Enjoy. -ctr

File list

  • Moribito.Guardian.of.the.Spirit.S01.1080p-Hi10p.BluRay.FLAC5.1.x264-CTR
    • Moribito.Guardian.of.the.Spirit.S01E01.1080p-Hi10p.BluRay.FLAC5.1.x264-CTR.[4790D504].mkv (2.0 GiB)
    • Moribito.Guardian.of.the.Spirit.S01E02.1080p-Hi10p.BluRay.FLAC5.1.x264-CTR.[64FA24E9].mkv (1.9 GiB)
    • Moribito.Guardian.of.the.Spirit.S01E03.1080p-Hi10p.BluRay.FLAC5.1.x264-CTR.[D086A80F].mkv (2.2 GiB)
    • Moribito.Guardian.of.the.Spirit.S01E04.1080p-Hi10p.BluRay.FLAC5.1.x264-CTR.[AC2BB73B].mkv (1.8 GiB)
    • Moribito.Guardian.of.the.Spirit.S01E05.1080p-Hi10p.BluRay.FLAC5.1.x264-CTR.[993CE794].mkv (1.9 GiB)
    • Moribito.Guardian.of.the.Spirit.S01E06.1080p-Hi10p.BluRay.FLAC5.1.x264-CTR.[C3F63B3D].mkv (1.9 GiB)
    • Moribito.Guardian.of.the.Spirit.S01E07.1080p-Hi10p.BluRay.FLAC5.1.x264-CTR.[56CD426F].mkv (1.9 GiB)
    • Moribito.Guardian.of.the.Spirit.S01E08.1080p-Hi10p.BluRay.FLAC5.1.x264-CTR.[60FD568D].mkv (1.9 GiB)
    • Moribito.Guardian.of.the.Spirit.S01E09.1080p-Hi10p.BluRay.FLAC5.1.x264-CTR.[1DA63DF4].mkv (1.9 GiB)
    • Moribito.Guardian.of.the.Spirit.S01E10.1080p-Hi10p.BluRay.FLAC5.1.x264-CTR.[0C7B9B38].mkv (1.9 GiB)
    • Moribito.Guardian.of.the.Spirit.S01E11.1080p-Hi10p.BluRay.FLAC5.1.x264-CTR.[C57EB557].mkv (2.1 GiB)
    • Moribito.Guardian.of.the.Spirit.S01E12.1080p-Hi10p.BluRay.FLAC5.1.x264-CTR.[417164C5].mkv (2.0 GiB)
    • Moribito.Guardian.of.the.Spirit.S01E13.1080p-Hi10p.BluRay.FLAC5.1.x264-CTR.[8869F5AB].mkv (1.9 GiB)
    • Moribito.Guardian.of.the.Spirit.S01E14.1080p-Hi10p.BluRay.FLAC5.1.x264-CTR.[F60BA533].mkv (2.1 GiB)
    • Moribito.Guardian.of.the.Spirit.S01E15.1080p-Hi10p.BluRay.FLAC5.1.x264-CTR.[35C3C2C6].mkv (1.9 GiB)
    • Moribito.Guardian.of.the.Spirit.S01E16.1080p-Hi10p.BluRay.FLAC5.1.x264-CTR.[DBC0C589].mkv (1.8 GiB)
    • Moribito.Guardian.of.the.Spirit.S01E17.1080p-Hi10p.BluRay.FLAC5.1.x264-CTR.[472D28F2].mkv (1.9 GiB)
    • Moribito.Guardian.of.the.Spirit.S01E18.1080p-Hi10p.BluRay.FLAC5.1.x264-CTR.[262F8C82].mkv (1.8 GiB)
    • Moribito.Guardian.of.the.Spirit.S01E19.1080p-Hi10p.BluRay.FLAC5.1.x264-CTR.[8C71D7CF].mkv (1.9 GiB)
    • Moribito.Guardian.of.the.Spirit.S01E20.1080p-Hi10p.BluRay.FLAC5.1.x264-CTR.[6BC23DBC].mkv (2.0 GiB)
    • Moribito.Guardian.of.the.Spirit.S01E21.1080p-Hi10p.BluRay.FLAC5.1.x264-CTR.[EBB438F6].mkv (1.9 GiB)
    • Moribito.Guardian.of.the.Spirit.S01E22.1080p-Hi10p.BluRay.FLAC5.1.x264-CTR.[2FACCCD0].mkv (1.8 GiB)
    • Moribito.Guardian.of.the.Spirit.S01E23.1080p-Hi10p.BluRay.FLAC5.1.x264-CTR.[1FECA4B2].mkv (1.8 GiB)
    • Moribito.Guardian.of.the.Spirit.S01E24.1080p-Hi10p.BluRay.FLAC5.1.x264-CTR.[D24C2FAE].mkv (1.9 GiB)
    • Moribito.Guardian.of.the.Spirit.S01E25.1080p-Hi10p.BluRay.FLAC5.1.x264-CTR.[4A79A4F4].mkv (1.8 GiB)
    • Moribito.Guardian.of.the.Spirit.S01E26.1080p-Hi10p.BluRay.FLAC5.1.x264-CTR.[939798F4].mkv (1.8 GiB)
First of all, thanks for this amazing release. Your other releases as well (bebop, nana, steins;gate, haibanei renmei, etc). On this torrent, there seems to be an issue with episode 6. At 5:21, there is a very loud audio artifact. I deleted that episode and redownloaded it to make sure it wasn't an issue with a corrupted download. Any chance at a reupload of that episode? I guess I could remux the audio from a different source, or just crop out a second of the episode too.
https://mega.nz/#F!zcBinaTL!XUnNozWYQQjgGpgXo17_2A Patch for the corrupted file is there. Just open the file "Moribito Patch". Not sure if it has to be placed into the same location as the mkv beforehand, but that's what I did.