Girls und Panzer S01 1080p Hi10p BluRay FLAC2.1 x264 [CTR] (English Dubbed Dual Audio)

Category:
Date:
2016-09-27 03:26 UTC
Submitter:
Seeders:
5
File size:
21.3 GiB
Completed:
445
Info hash:
6ab3129b06403d29bed5fb6b392d6394a121bac4
![Image](https://i.gyazo.com/f6e8265f3ee13e0f85c60da8ce5165a6.png) **[➙720p Option](https://www.nyaa.se/?page=view&tid=854214)** **[Release Thread](http://kametsu.com/topic/55674-megatorrent-ctr-girls-und-panzer-bd-1080p-hi10pflac-21-dual-audio-cute-girls-driving-serious-tanks/) | [CTR Release Index](http://kametsu.com/topic/54803-the-ctr-index-your-new-home-for-bloated-1080p-dual-audio-releases/)** _~PANZER VOR!~_ ![Image](http://kametsu.com/images/downloads/info.png) **UPDATE** (11/10/2016): The JPN audio was missing on episode 7 and had two English tracks instead. Patches [here](https://mega.nz/#F!jd5iwJYS!2R829k36ZLTfOA_ylFwBUg) to replace it with JPN audio. `<br></br>Medien Details<br></br>Videospur: 1080p-Hi10p (Beatrice-Raws)<br></br><br></br>Audiospur 1 (Default): Englisch 2.1 FLAC (CTR / Etzimal)<br></br>Audiospur 2: Japanisch 2.1 FLAC (Beatrice-Raws)<br></br><br></br>Untertitel 1 (Default): Englisch Zeichen (.ASS) (ak)<br></br>Untertitel 2: Englisch Gespräch (.ASS) (ak)<br></br>Untertitel 3: Englisch Zeichen (Retail) (.PGS) (Sentai)<br></br>Untertitel 4: Englisch Gespräch (Retail) (.PGS) (Sentai)<br></br><br></br>Kapitel<br></br>` I love this show. No, seriously, this show is fantastic. It's a pretty straightforward cliché sports-style plot arc, and there's cheese galore, but I think I got about halfway through episode 2 when I just started laughing and couldn't stop, just from the sheer "oh my god they're actually doing this completely straigthfaced and it's amazing" reaction. Beyond that, the tank designs are great, the battles are decently well choreographed, the sound design is **goddamn** spectacular, and it's just a whole lot of fun. This release is a bit more special than usual as well. For video, we've got Beatrice-Raws 1080p release, which looks fantastic. 720p comes from DmonHiro, as the only worthwhile 720p encode. Signs and subtitles are from ak, with Sentai's signs/subs included as a bonus. For audio, there's a special never-before-seen bonus. The Japanese track is 2.1 audio, which was an optional track on the BDs that Beatrice included. I've muxed it in, as the tanks really deserve that extra low frequency bump. If you've got a good subwoofer, get ready to have your house shake. But what about the English track? Yes, I've included a 2.1 track as well. Now, this track doesn't actually exist in any USBD. I muxed the Japanese low frequency in myself, checking to make sure it lined up and didn't conflict at all. (Special thanks to Hark0n for suggesting this). It sounds beautiful and everyone deserves it. Some of you might be aware that Sentai unfortunately did not get the license for a particular Russian song in episode 8. Since there was no reason it couldn't be mixed in, and because I am a generous and loving Catar, I have spliced that in over the lame music we normally got in the English dub. It fits in seamlessly, and since the JPBD encode from Beatrice features the characters singing, it all works out perfectly. Finally, I've also done the OVAs as included by Beatrice, same sources. They're a little bit fanservicey, but the later ones aren't bad. The scouting mission one (Winter War!) is actually pretty good, check that out for sure. The OVAs take place chronologically during the series. I've included after their titles a number where you might decide to watch them (eg: Girls.und.Panzer.S00E02.Water.War!.**4.6**.1080p-Hi10p.BluRay.FLAC2.1.x264-CTR.\[ABDE84A3\]). They're not important to the plot however, and you can definitely watch them all after the main series. I think I can call this the definitive English release for Girls und Panzer. Genießen, freunde. General Unique ID : 229952565394180331451939644321435829079 (0xACFF40CE50E23D8981BE38306C714357) Complete name : S:\\Anime\\Girls und Panzer\\Girls.und.Panzer.S01.1080p-Hi10p.BluRay.FLAC2.1.x264-CTR\\Girls.und.Panzer.S01E01.1080p-Hi10p.BluRay.FLAC2.1.x264-CTR.\[B2FE5AB3\].mkv Format : Matroska Format version : Version 4 / Version 2 File size : 1.25 GiB Duration : 24 min Overall bit rate mode : Variable Overall bit rate : 7 415 kb/s Encoded date : UTC 2016-09-27 03:24:21 Writing application : mkvmerge v9.4.2 ('So High') 64bit Writing library : libebml v1.3.4 + libmatroska v1.4.5 Attachments : BOOKOS.TTF / Burtinomatic-DemiBold.ttf / calibri.ttf / calibrii.ttf / calibriz.ttf / Dan\_Hand.ttf / Felt Regular.ttf / Latienne\_Becker\_Med.ttf / Latienne\_Becker\_Med\_Italic.ttf / LEXIA\_\_.ttf / MyriadPro-Bold.otf / MyriadPro-BoldCond.otf / MyriadPro-BoldCondIt.otf / MyriadPro-BoldIt.otf / MyriadPro-Cond.otf / MyriadPro-CondIt.otf / MyriadPro-It.otf / MyriadPro-Light.otf / MyriadPro-Regular.otf / MyriadPro-Regular\_0.otf / MyriadPro-Semibold.otf / MYRIADPRO-SEMIBOLD\_0.OTF / MyriadPro-SemiboldIt.otf / MYRIADPRO-SEMIBOLDIT\_0.OTF / One Off Cafe.ttf / One Off Mincho R.ttf / One Off Mincho.ttf / One Off Title.ttf / OzHandRm.ttf / Panzer1.ttf / Panzer2.ttf / PanzerNextEp.ttf / Phantasia.ttf / SchmaleGotischMK.ttf / wenzel3A.ttf / Yryr minc R.ttf Video ID : 1 Format : AVC Format/Info : Advanced Video Codec Format profile : High 10@L5 Format settings, CABAC : Yes Format settings, ReFrames : 4 frames Codec ID : V\_MPEG4/ISO/AVC Duration : 24 min Bit rate : 4 844 kb/s Width : 1 920 pixels Height : 1 080 pixels Display aspect ratio : 16:9 Frame rate mode : Constant Frame rate : 23.976 (24000/1001) FPS Color space : YUV Chroma subsampling : 4:2:0 Bit depth : 10 bits Scan type : Progressive Bits/(Pixel\*Frame) : 0.097 Stream size : 838 MiB (65%) Title : \[Beatrice-Raws\] Writing library : x264 core 148 (DJATOM's build) Encoding settings : cabac=1 / ref=4 / deblock=1:1:-1 / analyse=0x3:0x113 / me=umh / subme=9 / psy=1 / fade\_compensate=0.00 / psy\_rd=1.00:0.00 / mixed\_ref=1 / me\_range=32 / chroma\_me=1 / trellis=2 / 8x8dct=1 / cqm=0 / deadzone=21,11 / fast\_pskip=1 / chroma\_qp\_offset=-2 / threads=34 / lookahead\_threads=5 / sliced\_threads=0 / nr=0 / decimate=1 / interlaced=0 / bluray\_compat=0 / constrained\_intra=0 / bframes=9 / b\_pyramid=2 / b\_adapt=2 / b\_bias=0 / direct=1 / weightb=1 / open\_gop=0 / weightp=2 / keyint=250 / keyint\_min=23 / scenecut=40 / intra\_refresh=0 / rc=crf / mbtree=0 / crf=15.5000 / qcomp=0.72 / qpmin=0 / qpmax=81 / qpstep=4 / ip\_ratio=1.40 / pb\_ratio=1.30 / aq=1:0.85 Language : Japanese Default : Yes Forced : No Color range : Limited Color primaries : BT.709 Transfer characteristics : BT.709 Matrix coefficients : BT.709 Audio [\#1](//www.nyaa.se/?page=view&tid=1) ID : 2 Format : FLAC Format/Info : Free Lossless Audio Codec Codec ID : A\_FLAC Duration : 24 min Bit rate mode : Variable Bit rate : 761 kb/s Channel(s) : 3 channels Channel positions : Front: L R, LFE Sampling rate : 48.0 kHz Frame rate : 11.719 FPS (4096 spf) Bit depth : 16 bits Stream size : 132 MiB (10%) Title : FLAC 2.1 \[CTR\] Writing library : libFLAC 1.2.1 (UTC 2007-09-17) Language : English Default : Yes Forced : No Audio [\#2](//www.nyaa.se/?page=view&tid=2) ID : 3 Format : FLAC Format/Info : Free Lossless Audio Codec Codec ID : A\_FLAC Duration : 24 min Bit rate mode : Variable Bit rate : 1 771 kb/s Channel(s) : 3 channels Channel positions : Front: L R, LFE Sampling rate : 48.0 kHz Frame rate : 11.719 FPS (4096 spf) Bit depth : 24 bits Stream size : 306 MiB (24%) Title : FLAC 2.1 \[Beatrice\] Writing library : libFLAC 1.3.1 (UTC 2014-11-25) Language : Japanese Default : No Forced : No Text [\#1](//www.nyaa.se/?page=view&tid=1) ID : 4 Format : ASS Codec ID : S\_TEXT/ASS Codec ID/Info : Advanced Sub Station Alpha Duration : 19 min Bit rate : 239 b/s Count of elements : 263 Compression mode : Lossless Stream size : 34.7 KiB (0%) Title : Signs \[ak\] Language : English Default : Yes Forced : No Text [\#2](//www.nyaa.se/?page=view&tid=2) ID : 5 Format : ASS Codec ID : S\_TEXT/ASS Codec ID/Info : Advanced Sub Station Alpha Duration : 24 min Bit rate : 311 b/s Count of elements : 628 Compression mode : Lossless Stream size : 54.9 KiB (0%) Title : Subtitles \[ak\] Language : Japanese Default : No Forced : No Text [\#3](//www.nyaa.se/?page=view&tid=3) ID : 6 Format : PGS Muxing mode : zlib Codec ID : S\_HDMV/PGS Codec ID/Info : Picture based subtitle format used on BDs/HD-DVDs Duration : 19 min Bit rate : 963 b/s Count of elements : 53 Stream size : 140 KiB (0%) Title : Signs \[Sentai\] Language : English Default : No Forced : No Text [\#4](//www.nyaa.se/?page=view&tid=4) ID : 7 Format : PGS Muxing mode : zlib Codec ID : S\_HDMV/PGS Codec ID/Info : Picture based subtitle format used on BDs/HD-DVDs Duration : 24 min Bit rate : 9 149 b/s Count of elements : 595 Stream size : 1.58 MiB (0%) Title : Subtitles \[Sentai\] Language : Japanese Default : No Forced : No Menu 00:00:00.000 : :Avant 00:03:42.013 : :Part A 00:13:34.021 : :Part B 00:22:35.020 : :ED 00:24:04.985 : :Next **CTR Releases:** Collecting the best available sources around the internet and packing them up so you don't have to. My releases cater specifically to English audio viewers, though Japanese viewers are of course welcome. More details can be found on the individual release threads or at [my index](http://kametsu.com/topic/54803-the-ctr-index-your-new-home-for-bloated-1080p-dual-audio-releases/) on Kametsu, where you can also pitch me on whatever shows I go after next. Enjoy. -ctr

File list

  • Girls.und.Panzer.S01.1080p-Hi10p.BluRay.FLAC2.1.x264-CTR
    • Girls.und.Panzer.S00E02.Water.War!.4.6.1080p-Hi10p.BluRay.FLAC2.1.x264-CTR.[ABDE84A3].mkv (562.4 MiB)
    • Girls.und.Panzer.S00E10.Survival.War!.5.5.1080p-Hi10p.BluRay.FLAC2.1.x264-CTR.[074FDE61].mkv (754.1 MiB)
    • Girls.und.Panzer.S00E15.Schoolship.War!.3.5.1080p-Hi10p.BluRay.FLAC2.1.x264-CTR.[06FA3422].mkv (714.5 MiB)
    • Girls.und.Panzer.S00E20.Anglerfish.War!.4.5.1080p-Hi10p.BluRay.FLAC2.1.x264-CTR.[F96FC129].mkv (269.7 MiB)
    • Girls.und.Panzer.S00E24.Snow.War!.9.5.1080p-Hi10p.BluRay.FLAC2.1.x264-CTR.[B5A7242A].mkv (860.9 MiB)
    • Girls.und.Panzer.S00E28.Banquet.War!.13.1080p-Hi10p.BluRay.FLAC2.1.x264-CTR.[F33431A1].mkv (807.0 MiB)
    • Girls.und.Panzer.S01E01.1080p-Hi10p.BluRay.FLAC2.1.x264-CTR.[B2FE5AB3].mkv (1.3 GiB)
    • Girls.und.Panzer.S01E02.1080p-Hi10p.BluRay.FLAC2.1.x264-CTR.[65769261].mkv (1.2 GiB)
    • Girls.und.Panzer.S01E03.1080p-Hi10p.BluRay.FLAC2.1.x264-CTR.[92B40E46].mkv (1.3 GiB)
    • Girls.und.Panzer.S01E04.1080p-Hi10p.BluRay.FLAC2.1.x264-CTR.[1123C40D].mkv (1.5 GiB)
    • Girls.und.Panzer.S01E05.1080p-Hi10p.BluRay.FLAC2.1.x264-CTR.[F0B62578].mkv (1.7 GiB)
    • Girls.und.Panzer.S01E06.1080p-Hi10p.BluRay.FLAC2.1.x264-CTR.[C79F2199].mkv (1.5 GiB)
    • Girls.und.Panzer.S01E07.1080p-Hi10p.BluRay.FLAC2.1.x264-CTR.[5DB070CD].mkv (1.2 GiB)
    • Girls.und.Panzer.S01E08.1080p-Hi10p.BluRay.FLAC2.1.x264-CTR.[38504326].mkv (1.6 GiB)
    • Girls.und.Panzer.S01E09.1080p-Hi10p.BluRay.FLAC2.1.x264-CTR.[A51AEE3C].mkv (1.6 GiB)
    • Girls.und.Panzer.S01E10.1080p-Hi10p.BluRay.FLAC2.1.x264-CTR.[62CCEA87].mkv (1.2 GiB)
    • Girls.und.Panzer.S01E11.1080p-Hi10p.BluRay.FLAC2.1.x264-CTR.[1FAF3212].mkv (1.6 GiB)
    • Girls.und.Panzer.S01E12.1080p-Hi10p.BluRay.FLAC2.1.x264-CTR.[41068A11].mkv (1.9 GiB)
Thank you. Love a show with great audio, just as important if not more so than the video IMO.