Chaika the Coffin Princess S02 Avenging Battle 1080p Hi10p BluRay FLAC2.0 x264 [CTR] (English Dubbed Dual Audio) (Hitsugi no Chaika)

Category:
Date:
2016-09-26 13:38 UTC
Submitter:
Seeders:
1
File size:
22.9 GiB
Completed:
205
Info hash:
670efce280cd4793cd6c9d7cc28d7e7bd4404376
![Image](https://i.gyazo.com/47ff5b1393167b858c9f2235b79c4f21.png) **[➙720p Option](https://www.nyaa.se/?page=view&tid=853947) [➙Season 1](https://www.nyaa.se/?page=view&tid=853950) [Release Thread](http://kametsu.com/topic/55667-megatorrent-ctr-chaika-the-coffin-princess-bd-720p-10bit-1080p-10-bitaac-20-flac-20-dual-audio-seasons-1-and-2-and-an-ova-bonus/) | [CTR Release Index](http://kametsu.com/topic/54803-the-ctr-index-your-new-home-for-bloated-1080p-dual-audio-releases/)** _~insert clever phrase~_ ![Image](http://kametsu.com/images/downloads/info.png) `<br></br>Video Track: 1080p-Hi10p JPBD (Yousei-Raws)<br></br><br></br>Audio Track 1 (Default): English 2.0 FLAC (CTR / Etzimal)<br></br>Audio Track 2: Japanese 2.0 FLAC (Yousei-Raws)<br></br><br></br>Subtitle Track 1 (Default): English Signs (.ASS) (Chihiro / Anime-Koi / SallySubs)<br></br>Subtitle Track 2: English Dialogue (.ASS) (Chihiro / Anime-Koi / SallySubs)<br></br>` this is for a request so I don't have anything clever relating to this show. but hey did you ever hear about the one with--- no, can't do it. This is a pretty straightforward release for me. Yousei-Raws 1080p, with subtitles from SallySubs (as created from Chihiro subs and Anime-Koi typesetting). Audio sourced from Etzimal and myself for both versions. This is both season 1 and 2 (Avenging Battle), as well as the OVA for AB (The Coffin Hunt). I did not do a 720p release for season 1, as I was doing an upgrade of xDeathTheKid's release with Yousei-Raws video. If you want 720p, use his release, it's the same sources otherwise. More things coming, stay tuned. General Unique ID : 226392981255459739129649620551050320706 (0xAA51B3C20FD54CA487D34DFE0C69DB42) Complete name : S:\\Anime\\Chaika the Coffin Princess\\Season 1\\Chaika.the.Coffin.Princess.S01E01.1080p-Hi10p.BluRay.FLAC2.0.x264-CTR.\[F01A65B8\].mkv Format : Matroska Format version : Version 4 / Version 2 File size : 2.20 GiB Duration : 23 min Overall bit rate mode : Variable Overall bit rate : 13.3 Mb/s Movie name : Hitsugi no Chaika - 01 Encoded date : UTC 2016-09-23 20:36:20 Writing application : mkvmerge v9.4.2 ('So High') 64bit Writing library : libebml v1.3.4 + libmatroska v1.4.5 Attachments : BellGothicStd-Black.OTF / Blambot Pro Lite.ttf / JacobyICG-Light.otf / Timeless-Normal.ttf Video ID : 1 Format : AVC Format/Info : Advanced Video Codec Format profile : High 10@L4.1 Format settings, CABAC : Yes Format settings, ReFrames : 4 frames Codec ID : V\_MPEG4/ISO/AVC Duration : 23 min Bit rate : 11.1 Mb/s Width : 1 920 pixels Height : 1 080 pixels Display aspect ratio : 16:9 Frame rate mode : Constant Frame rate : 23.976 (24000/1001) FPS Color space : YUV Chroma subsampling : 4:2:0 Bit depth : 10 bits Scan type : Progressive Bits/(Pixel\*Frame) : 0.224 Stream size : 1.84 GiB (84%) Title : \[Yousei-Raws\] Writing library : x264 core 128 r2216 198a7ea Encoding settings : cabac=1 / ref=4 / deblock=1:-2:-2 / analyse=0x3:0x133 / me=umh / subme=9 / psy=1 / psy\_rd=0.90:0.00 / mixed\_ref=1 / me\_range=32 / chroma\_me=1 / trellis=2 / 8x8dct=1 / cqm=0 / deadzone=21,11 / fast\_pskip=1 / chroma\_qp\_offset=-2 / threads=12 / lookahead\_threads=2 / sliced\_threads=0 / nr=0 / decimate=0 / interlaced=0 / bluray\_compat=0 / constrained\_intra=0 / bframes=12 / b\_pyramid=2 / b\_adapt=2 / b\_bias=0 / direct=3 / weightb=1 / open\_gop=0 / weightp=2 / keyint=250 / keyint\_min=23 / scenecut=40 / intra\_refresh=0 / rc=crf / mbtree=0 / crf=16.0 / qcomp=0.70 / qpmin=0 / qpmax=81 / qpstep=4 / ip\_ratio=1.40 / pb\_ratio=1.30 / aq=1:0.90 Language : Japanese Default : Yes Forced : No Audio [\#1](//www.nyaa.se/?page=view&tid=1) ID : 2 Format : FLAC Format/Info : Free Lossless Audio Codec Codec ID : A\_FLAC Duration : 23 min Bit rate mode : Variable Bit rate : 1 423 kb/s Channel(s) : 2 channels Channel positions : Front: L R Sampling rate : 48.0 kHz Frame rate : 11.719 FPS (4096 spf) Bit depth : 24 bits Delay relative to video : 1 s 12 ms Stream size : 241 MiB (11%) Title : FLAC 2.0 \[CTR\] Writing library : libFLAC 1.2.1 (UTC 2007-09-17) Language : English Default : Yes Forced : No Audio [\#2](//www.nyaa.se/?page=view&tid=2) ID : 3 Format : FLAC Format/Info : Free Lossless Audio Codec Codec ID : A\_FLAC Duration : 23 min Bit rate mode : Variable Bit rate : 705 kb/s Channel(s) : 2 channels Sampling rate : 48.0 kHz Frame rate : 11.719 FPS (4096 spf) Bit depth : 16 bits Stream size : 119 MiB (5%) Title : FLAC 2.0 \[Yousei\] Writing library : libFLAC 1.2.1 (UTC 2007-09-17) Language : Japanese Default : No Forced : No Text [\#1](//www.nyaa.se/?page=view&tid=1) ID : 4 Format : ASS Codec ID : S\_TEXT/ASS Codec ID/Info : Advanced Sub Station Alpha Duration : 23 min Bit rate : 4 637 b/s Count of elements : 5512 Compression mode : Lossless Stream size : 804 KiB (0%) Title : Signs \[Chihiro\] Language : English Default : Yes Forced : No Text [\#2](//www.nyaa.se/?page=view&tid=2) ID : 5 Format : ASS Codec ID : S\_TEXT/ASS Codec ID/Info : Advanced Sub Station Alpha Duration : 23 min Bit rate : 4 754 b/s Count of elements : 5862 Compression mode : Lossless Stream size : 824 KiB (0%) Title : Subtitles \[Chihiro\] Language : Japanese Default : No Forced : No Menu 00:00:00.000 : :OP 00:01:31.007 : :Part A 00:09:50.047 : :Part B 00:21:55.981 : :ED 00:23:25.987 : :Preview **CTR Releases:** Collecting the best available sources around the internet and packing them up so you don't have to. My releases cater specifically to English audio viewers, though Japanese viewers are of course welcome. More details can be found on the individual release threads or at [my index](http://kametsu.com/topic/54803-the-ctr-index-your-new-home-for-bloated-1080p-dual-audio-releases/) on Kametsu, where you can also pitch me on whatever shows I go after next. Enjoy. -ctr

File list

  • Chaika.the.Coffin.Princess.S02.Avenging.Battle.1080p-Hi10p.BluRay.FLAC2.0.x264-CTR
    • Chaika.the.Coffin.Princess.S00E01.The.Coffin.Hunt.1080p-Hi10p.BluRay.FLAC2.0.x264-CTR.[FDD523DB].mkv (2.0 GiB)
    • Chaika.the.Coffin.Princess.S02E01.Avenging.Battle.1080p-Hi10p.BluRay.FLAC2.0.x264-CTR.[71DBFF78].mkv (2.1 GiB)
    • Chaika.the.Coffin.Princess.S02E02.Avenging.Battle.1080p-Hi10p.BluRay.FLAC2.0.x264-CTR.[84C198D3].mkv (2.1 GiB)
    • Chaika.the.Coffin.Princess.S02E03.Avenging.Battle.1080p-Hi10p.BluRay.FLAC2.0.x264-CTR.[D13A2C2F].mkv (2.1 GiB)
    • Chaika.the.Coffin.Princess.S02E04.Avenging.Battle.1080p-Hi10p.BluRay.FLAC2.0.x264-CTR.[FC4B1BB6].mkv (2.1 GiB)
    • Chaika.the.Coffin.Princess.S02E05.Avenging.Battle.1080p-Hi10p.BluRay.FLAC2.0.x264-CTR.[19F7DFF6].mkv (2.2 GiB)
    • Chaika.the.Coffin.Princess.S02E06.Avenging.Battle.1080p-Hi10p.BluRay.FLAC2.0.x264-CTR.[A9ED9898].mkv (1.9 GiB)
    • Chaika.the.Coffin.Princess.S02E07.Avenging.Battle.1080p-Hi10p.BluRay.FLAC2.0.x264-CTR.[C84FAE7A].mkv (1.9 GiB)
    • Chaika.the.Coffin.Princess.S02E08.Avenging.Battle.1080p-Hi10p.BluRay.FLAC2.0.x264-CTR.[AFF6388A].mkv (2.0 GiB)
    • Chaika.the.Coffin.Princess.S02E09.Avenging.Battle.1080p-Hi10p.BluRay.FLAC2.0.x264-CTR.[7915F86A].mkv (2.2 GiB)
    • Chaika.the.Coffin.Princess.S02E10.Avenging.Battle.1080p-Hi10p.BluRay.FLAC2.0.x264-CTR.[C8C2F975].mkv (2.2 GiB)
Thank you very much!
Can you plz seed this. Thank You!!!
Seed please, couldn't connect to the only 1 seeder for weeks now. Thank you.