No-Rin S01 PROPER 720p Hi10p BluRay AAC5.1 x264 [CTR] (English Dubbed Dual Audio) (Nourin)

Category:
Date:
2016-09-19 12:52 UTC
Submitter:
Seeders:
3
File size:
7.6 GiB
Completed:
677
Info hash:
b64c09c4674a850c0d96e09e265719befe0af43b
![Image](https://i.gyazo.com/c1f3d9315a43b29b19a84aedc7166331.png) **[➙1080p Option](https://www.nyaa.se/?page=view&tid=851647) [Release Thread](http://kametsu.com/topic/55434-megatorrent-ctr-no-rin-720p-hi10p-1080p-hi10paac-51-flac-51-dual-audio-insert-clever-subtitle-here/) | [CTR Release Index](http://kametsu.com/topic/54803-the-ctr-index-your-new-home-for-bloated-1080p-dual-audio-releases/)** _~I don't know anything about this show so here's a [loli](https://i.gyazo.com/ad1c49166049c4db3039a56ead0c4f8b.jpg)~_ ![Image](http://kametsu.com/images/downloads/info.png) UPDATE (24/09/2016): episode 6 720p was desynced. Catar is the best at QC. Patches available in [this folder.](https://mega.nz/#F!2dxGxZxB!xHN8NXrbpDvBO1YCeXwc4A) PROPER fixes audio desync on episode 5. `Media Details<br></br>Video Track: 720p-Hi10p (FFF)<br></br><br></br>Audio Track 1 (Default): English 5.1 AAC (Etzimal)<br></br>Audio Track 2: Japanese 2.0 AAC (FFF)<br></br><br></br>Subtitle Track 1 (Default): English Signs (.ASS) (kdfss / FFF)<br></br>Subtitle Track 2: English Dialogue (.ASS) (kdfss / FFF)<br></br><br></br>Chapters<br></br>` I don't know anything about this show, and Etzimal didn't write me a description so here's... something? FFF 720p/1080p with FFF's edit of kdfss subs. I created a Signs track, removed the signs where applicable as the English dub did include a dub of a song in episodes 1 and 11, and retimed USBD audio, supplied by Etzimal. This was done as a request, so this one's just a quick release. Good change of pace between Phantom and my next project. and yes that clearlogo sucks. Sorry, I couldn't find a legitimate one so I threw that together quickly. Anyone who finds the proper one gets a cookie. Bonus cookies if you get the English clearlogo. General Unique ID : 206409750553212996825653087169681671416 (0x9B49126AAF845EA4A5E1489AA801C4F8) Complete name : S:\\jails\\rutorrent\\home\\admin\\rtorrent\\downloads\\!ctr\\No-Rin.S01.720p-Hi10p.BluRay.AAC5.1.x264-CTR\\No-Rin.S01E01.720p-Hi10p.BluRay.AAC5.1.x264-CTR.\[9DB1762E\].mkv Format : Matroska Format version : Version 4 / Version 2 File size : 655 MiB Duration : 23 min Overall bit rate : 3 867 kb/s Encoded date : UTC 2016-09-09 01:18:32 Writing application : mkvmerge v9.4.0 ('Knurl') 64bit Writing library : libebml v1.3.4 + libmatroska v1.4.5 Attachments : armybeans.ttf / ARTIFICESSK.TTF / Basset Bold.ttf / beansplain.ttf / BettysHand Regular.ttf / Bolide-Regular.ttf / BRADHITC.TTF / CFSameOldStory-Regular.ttf / corbelb.ttf / domfortresscasual.ttf / FRML436N.TTF / galaxymonkey.ttf / GenBasR.ttf / Goodwill.otf / Helvetica\_LT\_97\_Black\_Condensed.ttf / JandaPolkadotParty-Regular.ttf / JandaPolkadotPunch-Regular.ttf / KGShadowOfTheDay.ttf / KGWhattheTeacherWants-Regular.ttf / Lato-Bla.ttf / Lato-BlaIta.ttf / maya.ttf / mikachan\_s.ttf / PencilPeteFONT.otf / PresentLTStd-BlackCondensed.otf / PresentLTStd-BoldCondensed.ttf / Tellural Bold.ttf / Tellural.ttf / verdana.ttf / advanced\_led\_board-7.ttf / AG\_Book\_Rounded\_Bold.ttf / agrounded-book.ttf / AMCAP Eternal.ttf Video ID : 1 Format : AVC Format/Info : Advanced Video Codec Format profile : High 10@L5 Format settings, CABAC : Yes Format settings, ReFrames : 16 frames Codec ID : V\_MPEG4/ISO/AVC Duration : 23 min Bit rate : 3 103 kb/s Width : 1 280 pixels Height : 720 pixels Display aspect ratio : 16:9 Frame rate mode : Constant Frame rate : 23.976 (24000/1001) FPS Color space : YUV Chroma subsampling : 4:2:0 Bit depth : 10 bits Scan type : Progressive Bits/(Pixel\*Frame) : 0.140 Stream size : 525 MiB (80%) Title : FFF Writing library : x264 core 144 r2525kMod 40bb568 Encoding settings : cabac=1 / ref=16 / deblock=1:0:0 / analyse=0x3:0x133 / me=umh / subme=11 / psy=1 / fade\_compensate=0.00 / psy\_rd=0.80:0.00 / mixed\_ref=1 / me\_range=24 / chroma\_me=1 / trellis=2 / 8x8dct=1 / cqm=0 / deadzone=21,11 / fast\_pskip=0 / chroma\_qp\_offset=-2 / threads=24 / lookahead\_threads=5 / sliced\_threads=0 / nr=0 / decimate=1 / interlaced=0 / bluray\_compat=0 / constrained\_intra=0 / fgo=0 / bframes=16 / b\_pyramid=2 / b\_adapt=2 / b\_bias=0 / direct=3 / weightb=1 / open\_gop=0 / weightp=2 / keyint=250 / keyint\_min=23 / scenecut=40 / intra\_refresh=0 / rc\_lookahead=250 / rc=crf / mbtree=1 / crf=13.5000 / qcomp=0.70 / qpmin=0 / qpmax=81 / qpstep=4 / ip\_ratio=1.40 / aq=3:0.80 Language : Japanese Default : Yes Forced : No Color range : Limited Color primaries : BT.709 Transfer characteristics : BT.709 Matrix coefficients : BT.709 Audio [\#1](//www.nyaa.se/?page=view&tid=1) ID : 2 Format : AAC Format/Info : Advanced Audio Codec Format profile : LC Codec ID : A\_AAC Duration : 23 min Bit rate : 474 kb/s Channel(s) : 6 channels Channel positions : Front: L C R, Side: L R, LFE Sampling rate : 48.0 kHz Frame rate : 46.875 FPS (1024 spf) Compression mode : Lossy Delay relative to video : 1 ms Stream size : 80.4 MiB (12%) Title : AAC 5.1 \[Etzimal\] Language : English Default : Yes Forced : No Audio [\#2](//www.nyaa.se/?page=view&tid=2) ID : 3 Format : AAC Format/Info : Advanced Audio Codec Format profile : LC Codec ID : A\_AAC Duration : 23 min Bit rate : 252 kb/s Channel(s) : 2 channels Channel positions : Front: L R Sampling rate : 48.0 kHz Frame rate : 46.875 FPS (1024 spf) Compression mode : Lossy Stream size : 42.6 MiB (7%) Title : AAC 2.0 \[FFF\] Language : Japanese Default : No Forced : No Text [\#1](//www.nyaa.se/?page=view&tid=1) ID : 4 Format : ASS Codec ID : S\_TEXT/ASS Codec ID/Info : Advanced Sub Station Alpha Duration : 22 min Bit rate : 7 676 b/s Count of elements : 4607 Compression mode : Lossless Stream size : 1.26 MiB (0%) Title : Signs \[kdfss / FFF\] Language : English Default : Yes Forced : No Text [\#2](//www.nyaa.se/?page=view&tid=2) ID : 5 Format : ASS Codec ID : S\_TEXT/ASS Codec ID/Info : Advanced Sub Station Alpha Duration : 23 min Bit rate : 9 143 b/s Count of elements : 6606 Compression mode : Lossless Stream size : 1.54 MiB (0%) Title : Subtitles \[kdfss / FFF\] Language : Japanese Default : No Forced : No Menu 00:00:00.000 : en:Prologue 00:02:55.926 : en:Episode 00:22:04.990 : en:Ending 00:23:34.997 : en:Preview **CTR Releases:** Collecting the best available sources around the internet and packing them up so you don't have to. My releases cater specifically to English audio viewers, though Japanese viewers are of course welcome. More details can be found on the individual release threads or at [my index](http://kametsu.com/topic/54803-the-ctr-index-your-new-home-for-bloated-1080p-dual-audio-releases/) on Kametsu, where you can also pitch me on whatever shows I go after next. Enjoy. -ctr

File list

  • No-Rin.S01.720p-Hi10p.BluRay.AAC5.1.x264-CTR
    • No-Rin.S01E01.720p-Hi10p.BluRay.AAC5.1.x264-CTR.[9DB1762E].mkv (655.1 MiB)
    • No-Rin.S01E02.720p-Hi10p.BluRay.AAC5.1.x264-CTR.[8C3A843A].mkv (527.8 MiB)
    • No-Rin.S01E03.720p-Hi10p.BluRay.AAC5.1.x264-CTR.[36DA7239].mkv (650.8 MiB)
    • No-Rin.S01E04.720p-Hi10p.BluRay.AAC5.1.x264-CTR.[CF46A999].mkv (716.1 MiB)
    • No-Rin.S01E05.PROPER.720p-Hi10p.BluRay.AAC5.1.x264-CTR.[BE29176A].mkv (700.8 MiB)
    • No-Rin.S01E06.720p-Hi10p.BluRay.AAC5.1.x264-CTR.[2994897C].mkv (481.7 MiB)
    • No-Rin.S01E07.720p-Hi10p.BluRay.AAC5.1.x264-CTR.[DA4B31E6].mkv (502.3 MiB)
    • No-Rin.S01E08.720p-Hi10p.BluRay.AAC5.1.x264-CTR.[02544DD9].mkv (634.3 MiB)
    • No-Rin.S01E09.720p-Hi10p.BluRay.AAC5.1.x264-CTR.[8BDBA69B].mkv (1.1 GiB)
    • No-Rin.S01E10.720p-Hi10p.BluRay.AAC5.1.x264-CTR.[B6FC64C4].mkv (624.1 MiB)
    • No-Rin.S01E11.720p-Hi10p.BluRay.AAC5.1.x264-CTR.[C88B7FAD].mkv (558.5 MiB)
    • No-Rin.S01E12.720p-Hi10p.BluRay.AAC5.1.x264-CTR.[39C570C1].mkv (599.8 MiB)