No-Rin S01 PROPER 1080p Hi10p BluRay FLAC5.1 x264 [CTR] (English Dubbed Dual Audio) (Nourin)

Category:
Date:
2016-09-19 12:52 UTC
Submitter:
Seeders:
7
File size:
19.3 GiB
Completed:
262
Info hash:
b6c3a0ae29fd117570ef517bdeb58d037d320d4a
![Image](https://i.gyazo.com/c1f3d9315a43b29b19a84aedc7166331.png) **[➙720p Option](https://www.nyaa.se/?page=view&tid=851648) [Release Thread](http://kametsu.com/topic/55434-megatorrent-ctr-no-rin-720p-hi10p-1080p-hi10paac-51-flac-51-dual-audio-insert-clever-subtitle-here/) | [CTR Release Index](http://kametsu.com/topic/54803-the-ctr-index-your-new-home-for-bloated-1080p-dual-audio-releases/)** _~I don't know anything about this show so here's a [loli](https://i.gyazo.com/ad1c49166049c4db3039a56ead0c4f8b.jpg)~_ ![Image](http://kametsu.com/images/downloads/info.png) PROPER fixes audio desync on episode 5. No patches. `Media Details<br></br>Video Track: 1080p-Hi10p (FFF)<br></br><br></br>Audio Track 1 (Default): English 5.1 FLAC (Etzimal)<br></br>Audio Track 2: Japanese 2.0 FLAC (FFF)<br></br><br></br>Subtitle Track 1 (Default): English Signs (.ASS) (kdfss / FFF)<br></br>Subtitle Track 2: English Dialogue (.ASS) (kdfss / FFF)<br></br><br></br>Chapters<br></br>` I don't know anything about this show, and Etzimal didn't write me a description so here's... something? FFF 720p/1080p with FFF's edit of kdfss subs. I created a Signs track, removed the signs where applicable as the English dub did include a dub of a song in episodes 1 and 11, and retimed USBD audio, supplied by Etzimal. This was done as a request, so this one's just a quick release. Good change of pace between Phantom and my next project. and yes that clearlogo sucks. Sorry, I couldn't find a legitimate one so I threw that together quickly. Anyone who finds the proper one gets a cookie. Bonus cookies if you get the English clearlogo. General Unique ID : 241553060900345262468879431074061839683 (0xB5B96D647DF66491B16562C579756D43) Complete name : S:\\Anime\\No-Rin\\Season 1\\No-Rin.S01E01.1080p-Hi10p.BluRay.FLAC5.1.x264-CTR.\[CA0533D7\].mkv Format : Matroska Format version : Version 4 / Version 2 File size : 1.53 GiB Duration : 23 min Overall bit rate mode : Variable Overall bit rate : 9 246 kb/s Encoded date : UTC 2016-09-09 01:07:14 Writing application : mkvmerge v9.4.0 ('Knurl') 64bit Writing library : libebml v1.3.4 + libmatroska v1.4.5 Attachments : armybeans.ttf / ARTIFICESSK.TTF / Basset Bold.ttf / beansplain.ttf / BettysHand Regular.ttf / Bolide-Regular.ttf / BRADHITC.TTF / CFSameOldStory-Regular.ttf / corbelb.ttf / domfortresscasual.ttf / FRML436N.TTF / galaxymonkey.ttf / GenBasR.ttf / Goodwill.otf / Helvetica\_LT\_97\_Black\_Condensed.ttf / JandaPolkadotParty-Regular.ttf / JandaPolkadotPunch-Regular.ttf / KGShadowOfTheDay.ttf / KGWhattheTeacherWants-Regular.ttf / Lato-Bla.ttf / Lato-BlaIta.ttf / maya.ttf / mikachan\_s.ttf / PencilPeteFONT.otf / PresentLTStd-BlackCondensed.otf / PresentLTStd-BoldCondensed.ttf / Tellural Bold.ttf / Tellural.ttf / verdana.ttf / advanced\_led\_board-7.ttf / AG\_Book\_Rounded\_Bold.ttf / agrounded-book.ttf / AMCAP Eternal.ttf Video ID : 1 Format : AVC Format/Info : Advanced Video Codec Format profile : High 10@L5.1 Format settings, CABAC : Yes Format settings, ReFrames : 16 frames Codec ID : V\_MPEG4/ISO/AVC Duration : 23 min Bit rate : 6 501 kb/s Width : 1 920 pixels Height : 1 080 pixels Display aspect ratio : 16:9 Frame rate mode : Constant Frame rate : 23.976 (24000/1001) FPS Color space : YUV Chroma subsampling : 4:2:0 Bit depth : 10 bits Scan type : Progressive Bits/(Pixel\*Frame) : 0.131 Stream size : 1.07 GiB (70%) Title : FFF Writing library : x264 core 144 r2525kMod 40bb568 Encoding settings : cabac=1 / ref=16 / deblock=1:0:0 / analyse=0x3:0x133 / me=umh / subme=11 / psy=1 / fade\_compensate=0.00 / psy\_rd=0.80:0.00 / mixed\_ref=1 / me\_range=24 / chroma\_me=1 / trellis=2 / 8x8dct=1 / cqm=0 / deadzone=21,11 / fast\_pskip=0 / chroma\_qp\_offset=-2 / threads=24 / lookahead\_threads=6 / sliced\_threads=0 / nr=0 / decimate=1 / interlaced=0 / bluray\_compat=0 / constrained\_intra=0 / fgo=0 / bframes=16 / b\_pyramid=2 / b\_adapt=2 / b\_bias=0 / direct=3 / weightb=1 / open\_gop=0 / weightp=2 / keyint=250 / keyint\_min=23 / scenecut=40 / intra\_refresh=0 / rc\_lookahead=250 / rc=crf / mbtree=1 / crf=13.5000 / qcomp=0.70 / qpmin=0 / qpmax=81 / qpstep=4 / ip\_ratio=1.40 / aq=3:0.80 Language : Japanese Default : Yes Forced : No Color range : Limited Color primaries : BT.709 Transfer characteristics : BT.709 Matrix coefficients : BT.709 Audio [\#1](//www.nyaa.se/?page=view&tid=1) ID : 2 Format : FLAC Format/Info : Free Lossless Audio Codec Codec ID : A\_FLAC Duration : 23 min Bit rate mode : Variable Bit rate : 1 653 kb/s Channel(s) : 6 channels Channel positions : Front: L C R, Side: L R, LFE Sampling rate : 48.0 kHz Frame rate : 11.719 FPS (4096 spf) Bit depth : 16 bits Delay relative to video : 24 ms Stream size : 280 MiB (18%) Title : FLAC 5.1 \[Etzimal\] Writing library : libFLAC 1.2.1 (UTC 2007-09-17) Language : English Default : Yes Forced : No Audio [\#2](//www.nyaa.se/?page=view&tid=2) ID : 3 Format : FLAC Format/Info : Free Lossless Audio Codec Codec ID : A\_FLAC Duration : 23 min Bit rate mode : Variable Bit rate : 1 057 kb/s Channel(s) : 2 channels Channel positions : Front: L R Sampling rate : 48.0 kHz Frame rate : 11.719 FPS (4096 spf) Bit depth : 24 bits Stream size : 179 MiB (11%) Title : FLAC 2.0 \[FFF\] Writing library : libFLAC 1.3.0 (UTC 2013-05-26) Language : Japanese Default : No Forced : No Text [\#1](//www.nyaa.se/?page=view&tid=1) ID : 4 Format : ASS Codec ID : S\_TEXT/ASS Codec ID/Info : Advanced Sub Station Alpha Duration : 22 min Bit rate : 7 676 b/s Count of elements : 4607 Compression mode : Lossless Stream size : 1.26 MiB (0%) Title : Signs \[kdfss / FFF\] Language : English Default : Yes Forced : No Text [\#2](//www.nyaa.se/?page=view&tid=2) ID : 5 Format : ASS Codec ID : S\_TEXT/ASS Codec ID/Info : Advanced Sub Station Alpha Duration : 23 min Bit rate : 9 297 b/s Count of elements : 6606 Compression mode : Lossless Stream size : 1.57 MiB (0%) Title : Subtitles \[kdfss / FFF\] Language : Japanese Default : No Forced : No Menu 00:00:00.000 : en:Prologue 00:02:55.926 : en:Episode 00:22:04.990 : en:Ending 00:23:34.997 : en:Preview **CTR Releases:** Collecting the best available sources around the internet and packing them up so you don't have to. My releases cater specifically to English audio viewers, though Japanese viewers are of course welcome. More details can be found on the individual release threads or at [my index](http://kametsu.com/topic/54803-the-ctr-index-your-new-home-for-bloated-1080p-dual-audio-releases/) on Kametsu, where you can also pitch me on whatever shows I go after next. Enjoy. -ctr

File list

  • No-Rin.S01.PROPER.1080p-Hi10p.BluRay.FLAC5.1.x264-CTR
    • No-Rin.S01E01.1080p-Hi10p.BluRay.FLAC5.1.x264-CTR.[CA0533D7].mkv (1.5 GiB)
    • No-Rin.S01E02.1080p-Hi10p.BluRay.FLAC5.1.x264-CTR.[0CD382F2].mkv (1.3 GiB)
    • No-Rin.S01E03.1080p-Hi10p.BluRay.FLAC5.1.x264-CTR.[DFFC2113].mkv (1.6 GiB)
    • No-Rin.S01E04.1080p-Hi10p.BluRay.FLAC5.1.x264-CTR.[5E82DAFD].mkv (1.7 GiB)
    • No-Rin.S01E05.PROPER.1080p-Hi10p.BluRay.FLAC5.1.x264-CTR.[458A9354].mkv (1.7 GiB)
    • No-Rin.S01E06.1080p-Hi10p.BluRay.FLAC5.1.x264-CTR.[9F0B4502].mkv (1.3 GiB)
    • No-Rin.S01E07.1080p-Hi10p.BluRay.FLAC5.1.x264-CTR.[0B628D21].mkv (1.3 GiB)
    • No-Rin.S01E08.1080p-Hi10p.BluRay.FLAC5.1.x264-CTR.[57268FFD].mkv (1.7 GiB)
    • No-Rin.S01E09.1080p-Hi10p.BluRay.FLAC5.1.x264-CTR.[68D5EDD5].mkv (2.5 GiB)
    • No-Rin.S01E10.1080p-Hi10p.BluRay.FLAC5.1.x264-CTR.[422FA91F].mkv (1.5 GiB)
    • No-Rin.S01E11.1080p-Hi10p.BluRay.FLAC5.1.x264-CTR.[79504BAD].mkv (1.5 GiB)
    • No-Rin.S01E12.1080p-Hi10p.BluRay.FLAC5.1.x264-CTR.[6B3C65BA].mkv (1.5 GiB)
february 2020 - can someone please seed again? thank you.
April 2020 need seeders