Cowboy Bebop S01 720p Hi10p BluRay AC35.1 x264 [CTR] (English Dubbed Dual Audio) (Includes the Movie - Knockin' on Heaven's Door)

Category:
Date:
2016-09-12 21:51 UTC
Submitter:
Seeders:
2
File size:
23.4 GiB
Completed:
377
Info hash:
6213e9c48ac8844d7ba98e9efecd9620f89abf6d
**[Release Thread](http://kametsu.com/topic/55464-megatorrent-ctr-cowboy-bebop-720p-hi10p-1080p-hi10paac-51-flac-51-dual-audio-one-of-the-pinnacles-of-anime/) | [Index](http://kametsu.com/topic/54803-the-ctr-index-your-new-home-for-bloated-1080p-dual-audio-releases/)** Done by request, and because this is the best anime. Media Details - TV series Video Track: 720p-Hi10p (fussoir) Audio Track 1 (Default): English 5.1 AC3 (fussoir) Audio Track 2: Japanese 5.1 AAC (fussoir) Audio Track 3: Japanese / English Commentary 2.0 AAC (OZC) - Episodes 1, 17, and 24 are Japanese commentary. Episodes 5 and 10 are English commentary. Subtitles included for Japanese commentary. Subtitle Track 1 (Default): English Signs (.ASS) (OZC) Subtitle Track 2: English Dialogue (.ASS) (OZC) Subtitle Track 3: English Commentary (.ASS) (OZC) Media Details - Movie Video Track: 720p-Hi10p (REVO) Audio Track 1 (Default): English 2.0 FLAC (BluDragon) Audio Track 2: English 5.1 AC3 (REVO) Audio Track 3: Japanese 5.1 AAC (REVO) Subtitle Track 1 (Default): Placebo Signs Track (.ASS) (CTR) - to catch default settings so you don't get subtitles. There are no signs. Subtitle Track 2: English Dialogue (.ASS) (REVO) Subtitle Track 3: English Dialogue (Colour Coded) (.ASS) (REVO) General Unique ID :186744488766597462720193915406246599129 (0x8C7DAE27415815B4AD95AB080CCDD9D9) Complete name :Cowboy.Bebop.S01E01.720p-Hi10p.BluRay.AC35.1.x264-CTR.\[B4C39FA7\].mkv Format :Matroska Format version :Version 4 / Version 2 File size :757 MiB Duration :24 min Overall bit rate :4 281 kb/s Movie name :Cowboy Bebop — Épisode 01 Encoded date :UTC 2016-09-12 16:16:23 Writing application :mkvmerge v9.4.2 ('So High') 64bit Writing library :libebml v1.3.4 + libmatroska v1.4.5 Attachments :encoding-source-code.7z / HelveticaNeueLTCom-MdSemiEx.ttf / HelveticaNeueLTCom-MdSemiExO.ttf / TEMPSITC.TTF / GaramondPremrPro-Smbd.otf / GaramondPremrPro.otf / rough\_typewriter.otf / calibri.ttf / calibrii.ttf / TEMPSITC.TTF Video ID :1 Format :AVC Format/Info :Advanced Video Codec Format profile :High 10@L5 Format settings, CABAC :Yes Format settings, ReFrames :16 frames Codec ID :V\_MPEG4/ISO/AVC Duration :24 min Bit rate :3 080 kb/s Width :960 pixels Height :720 pixels Display aspect ratio :4:3 Frame rate mode :Constant Frame rate :23.976 (24000/1001) FPS Color space :YUV Chroma subsampling :4:2:0 Bit depth :10 bits Scan type :Progressive Bits/(Pixel\*Frame) :0.186 Stream size :545 MiB (72%) Title :\[fussoir\] Writing library :x264 core 129 r2245+704+35 dbbd7a1 tMod \[10-bit@all X86\] Encoding settings :cabac=1 / ref=16 / deblock=1:0:-1 / analyse=0x3:0x133 / me=umh / subme=10 / psy=1 / fade\_compensate=1.00 / psy\_rd=0.60:0.10 / mixed\_ref=1 / me\_range=32 / chroma\_me=1 / trellis=2 / 8x8dct=1 / cqm=0 / deadzone=21,11 / fast\_pskip=0 / chroma\_qp\_offset=-3 / threads=6 / lookahead\_threads=1 / sliced\_threads=0 / nr=0 / decimate=0 / interlaced=0 / bluray\_compat=0 / constrained\_intra=0 / fgo=0 / bframes=10 / b\_pyramid=2 / b\_adapt=2 / b\_bias=0 / direct=3 / weightb=1 / open\_gop=0 / weightp=2 / keyint=250 / keyint\_min=23 / scenecut=40 / intra\_refresh=0 / rc\_lookahead=60 / rc=crf / mbtree=1 / crf=17.0000 / qcomp=0.80 / qpmin=0 / qpmax=81 / qpstep=4 / ip\_ratio=1.40 / aq=3:0.90 / zones=4190,4228,q=30/4247,4308,q=30/4325,4333,q=30/4346,4365,q=30/4405,4515,q=30/34865,34960,q=36,no-deblock Language :Japanese Default :Yes Forced :No Color range :Limited Color primaries :BT.709 Transfer characteristics :BT.709 Matrix coefficients :BT.709 Audio [\#1](//www.nyaa.se/?page=view&tid=1) ID :2 Format :AC-3 Format/Info :Audio Coding 3 Mode extension :CM (complete main) Format settings, Endianness :Big Codec ID :A\_AC3 Duration :24 min Bit rate mode :Constant Bit rate :448 kb/s Channel(s) :6 channels Channel positions :Front: L C R, Side: L R, LFE Sampling rate :48.0 kHz Frame rate :31.250 FPS (1536 spf) Compression mode :Lossy Stream size :79.2 MiB (10%) Title :AC3 5.1 \[fussoir\] Language :English Default :Yes Forced :No Audio [\#2](//www.nyaa.se/?page=view&tid=2) ID :3 Format :AAC Format/Info :Advanced Audio Codec Format profile :LC Codec ID :A\_AAC Duration :24 min Bit rate :576 kb/s Channel(s) :6 channels Channel positions :Front: L C R, Side: L R, LFE Sampling rate :48.0 kHz Frame rate :46.875 FPS (1024 spf) Compression mode :Lossy Stream size :104 MiB (14%) Title :AAC 5.1 \[fussoir\] Language :Japanese Default :No Forced :No Audio [\#3](//www.nyaa.se/?page=view&tid=3) ID :4 Format :AAC Format/Info :Advanced Audio Codec Format profile :LC Codec ID :A\_AAC Duration :24 min Bit rate :141 kb/s Channel(s) :2 channels Channel positions :Front: L R Sampling rate :48.0 kHz Frame rate :46.875 FPS (1024 spf) Compression mode :Lossy Stream size :24.9 MiB (3%) Title :Commentary - AAC 2.0 \[OZC\] Language :Japanese Default :No Forced :No Text [\#1](//www.nyaa.se/?page=view&tid=1) ID :5 Format :ASS Codec ID :S\_TEXT/ASS Codec ID/Info :Advanced Sub Station Alpha Duration :1 min Bit rate :154 b/s Count of elements :10 Compression mode :Lossless Stream size :1.28 KiB (0%) Title :Signs \[OZC\] Language :English Default :Yes Forced :No Text [\#2](//www.nyaa.se/?page=view&tid=2) ID :6 Format :ASS Codec ID :S\_TEXT/ASS Codec ID/Info :Advanced Sub Station Alpha Duration :21 min Bit rate :79 b/s Count of elements :224 Compression mode :Lossless Stream size :12.5 KiB (0%) Title :Subtitles \[OZC\] Language :Japanese Default :No Forced :No Text [\#3](//www.nyaa.se/?page=view&tid=3) ID :7 Format :ASS Codec ID :S\_TEXT/ASS Codec ID/Info :Advanced Sub Station Alpha Duration :21 min Bit rate :183 b/s Count of elements :452 Compression mode :Lossless Stream size :29.3 KiB (0%) Title :Commentary Subtitles \[OZC\] Language :Japanese Default :No Forced :No Menu 00:00:00.000 ::Prologue 00:00:48.911 ::Opening Credits 00:02:19.178 ::Part 1 00:12:24.640 ::Part 2 00:22:36.728 ::Ending Credits 00:24:11.895 ::Next Episode Preview

File list

  • Cowboy.Bebop.S01.720p-Hi10p.BluRay.AC35.1.x264-CTR
    • Cowboy.Bebop.S00E01.Knockin.on.Heavens.Door.22.5.720p-Hi10p.BluRay.AC35.1.x264-CTR.[B3AAF271].mkv (6.8 GiB)
    • Cowboy.Bebop.S01E01.720p-Hi10p.BluRay.AC35.1.x264-CTR.[B4C39FA7].mkv (757.2 MiB)
    • Cowboy.Bebop.S01E02.720p-Hi10p.BluRay.AC35.1.x264-CTR.[8CB9C3FB].mkv (653.9 MiB)
    • Cowboy.Bebop.S01E03.720p-Hi10p.BluRay.AC35.1.x264-CTR.[CD820DDB].mkv (565.4 MiB)
    • Cowboy.Bebop.S01E04.720p-Hi10p.BluRay.AC35.1.x264-CTR.[F197B7A0].mkv (703.7 MiB)
    • Cowboy.Bebop.S01E05.720p-Hi10p.BluRay.AC35.1.x264-CTR.[CE1241B7].mkv (571.8 MiB)
    • Cowboy.Bebop.S01E06.720p-Hi10p.BluRay.AC35.1.x264-CTR.[BF8C2CF3].mkv (607.3 MiB)
    • Cowboy.Bebop.S01E07.720p-Hi10p.BluRay.AC35.1.x264-CTR.[D4802589].mkv (626.4 MiB)
    • Cowboy.Bebop.S01E08.720p-Hi10p.BluRay.AC35.1.x264-CTR.[6DC11C70].mkv (568.3 MiB)
    • Cowboy.Bebop.S01E09.720p-Hi10p.BluRay.AC35.1.x264-CTR.[180DE6F2].mkv (662.5 MiB)
    • Cowboy.Bebop.S01E10.720p-Hi10p.BluRay.AC35.1.x264-CTR.[481BB67B].mkv (653.5 MiB)
    • Cowboy.Bebop.S01E11.720p-Hi10p.BluRay.AC35.1.x264-CTR.[75BB8373].mkv (638.2 MiB)
    • Cowboy.Bebop.S01E12.720p-Hi10p.BluRay.AC35.1.x264-CTR.[79F8B755].mkv (518.7 MiB)
    • Cowboy.Bebop.S01E13.720p-Hi10p.BluRay.AC35.1.x264-CTR.[763D7E7B].mkv (820.8 MiB)
    • Cowboy.Bebop.S01E14.720p-Hi10p.BluRay.AC35.1.x264-CTR.[8F716F3F].mkv (558.7 MiB)
    • Cowboy.Bebop.S01E15.720p-Hi10p.BluRay.AC35.1.x264-CTR.[C518FBA0].mkv (649.0 MiB)
    • Cowboy.Bebop.S01E16.720p-Hi10p.BluRay.AC35.1.x264-CTR.[8284F504].mkv (632.4 MiB)
    • Cowboy.Bebop.S01E17.720p-Hi10p.BluRay.AC35.1.x264-CTR.[511B2A55].mkv (645.8 MiB)
    • Cowboy.Bebop.S01E18.720p-Hi10p.BluRay.AC35.1.x264-CTR.[98CBF798].mkv (758.5 MiB)
    • Cowboy.Bebop.S01E19.720p-Hi10p.BluRay.AC35.1.x264-CTR.[74E010A1].mkv (633.4 MiB)
    • Cowboy.Bebop.S01E20.720p-Hi10p.BluRay.AC35.1.x264-CTR.[2BFC1071].mkv (735.2 MiB)
    • Cowboy.Bebop.S01E21.720p-Hi10p.BluRay.AC35.1.x264-CTR.[A92B3605].mkv (694.0 MiB)
    • Cowboy.Bebop.S01E22.720p-Hi10p.BluRay.AC35.1.x264-CTR.[9BFCB4BE].mkv (624.3 MiB)
    • Cowboy.Bebop.S01E23.720p-Hi10p.BluRay.AC35.1.x264-CTR.[410E1D60].mkv (866.9 MiB)
    • Cowboy.Bebop.S01E24.720p-Hi10p.BluRay.AC35.1.x264-CTR.[D80C9EE6].mkv (657.7 MiB)
    • Cowboy.Bebop.S01E25.720p-Hi10p.BluRay.AC35.1.x264-CTR.[986ACAB0].mkv (661.4 MiB)
    • Cowboy.Bebop.S01E26.720p-Hi10p.BluRay.AC35.1.x264-CTR.[1FFACEA4].mkv (621.1 MiB)
Japanese audio doesn't work in the movie for some reason.