Cowboy Bebop S01 1080p Hi10p BluRay FLAC5.1 x264 [CTR] (English Dubbed Dual Audio) (Includes the Movie - Knockin' on Heaven's Door)

Category:
Date:
2016-09-12 13:55 UTC
Submitter:
Seeders:
23
File size:
66.7 GiB
Completed:
4027
Info hash:
29865a4d487c1369f20017047407ea78689aac69
**[Release Thread](http://kametsu.com/topic/55464-megatorrent-ctr-cowboy-bebop-720p-hi10p-1080p-hi10paac-51-flac-51-dual-audio-one-of-the-pinnacles-of-anime/) | [Index](http://kametsu.com/topic/54803-the-ctr-index-your-new-home-for-bloated-1080p-dual-audio-releases/)** Done by request, and because this is the best anime. Media Details - TV series Video Track: 1080p-Hi10p (fussoir) Audio Track 1 (Default): English 5.1 FLAC (philosophy-raws) Audio Track 2: Japanese 5.1 FLAC (philosophy-raws) Audio Track 3: Japanese / English Commentary 2.0 AAC (OZC) - Episodes 1, 17, and 24 are Japanese commentary. Episodes 5 and 10 are English commentary. Subtitles included for Japanese commentary. Subtitle Track 1 (Default): English Signs (.ASS) (OZC) Subtitle Track 2: English Dialogue (.ASS) (OZC) Subtitle Track 3: English Commentary (.ASS) (OZC) Media Details - Movie Video Track: 1080p-Hi10p (REVO) Audio Track 1 (Default): English 2.0 FLAC (BluDragon) Audio Track 2: English 5.1 AC3 (REVO) Audio Track 3: Japanese 5.1 FLAC (REVO) Subtitle Track 1 (Default): Placebo Signs Track (.ASS) (CTR) - to catch default settings so you don't get subtitles. There are no signs. Subtitle Track 2: English Dialogue (.ASS) (REVO) Subtitle Track 3: English Dialogue (Colour Coded) (.ASS) (REVO) General Unique ID :173974028667235356262194101087440317611 (0x82E22DDBD481BD28BCC3593E493DACAB) Complete name :S:\\Anime\\Cowboy Bebop\\Cowboy.Bebop.S01.1080p-Hi10p.BluRay.FLAC5.1.x264-CTR\\Cowboy.Bebop.S01E01.1080p-Hi10p.BluRay.FLAC5.1.x264.\[BD1B305A\].mkv Format :Matroska Format version :Version 4 / Version 2 File size :2.27 GiB Duration :24 min Overall bit rate mode :Variable Overall bit rate :13.1 Mb/s Movie name :Cowboy Bebop — Épisode 01 Encoded date :UTC 2016-09-12 03:15:10 Writing application :mkvmerge v9.4.0 ('Knurl') 64bit Writing library :libebml v1.3.4 + libmatroska v1.4.5 Attachments :encoding-source-code.7z / HelveticaNeueLTCom-MdSemiEx.ttf / HelveticaNeueLTCom-MdSemiExO.ttf / TEMPSITC.TTF / GaramondPremrPro-Smbd.otf / GaramondPremrPro.otf / rough\_typewriter.otf / calibri.ttf / calibrii.ttf / TEMPSITC.TTF Video ID :1 Format :AVC Format/Info :Advanced Video Codec Format profile :High 10@L5 Format settings, CABAC :Yes Format settings, ReFrames :16 frames Codec ID :V\_MPEG4/ISO/AVC Duration :24 min Bit rate :6 571 kb/s Width :1 448 pixels Height :1 080 pixels Display aspect ratio :4:3 Frame rate mode :Constant Frame rate :23.976 (24000/1001) FPS Color space :YUV Chroma subsampling :4:2:0 Bit depth :10 bits Scan type :Progressive Bits/(Pixel\*Frame) :0.175 Stream size :1.13 GiB (50%) Title :fussoir Writing library :x264 core 129 r2245+704+35 dbbd7a1 tMod \[10-bit@all X86\] Encoding settings :cabac=1 / ref=16 / deblock=1:0:-2 / analyse=0x3:0x133 / me=umh / subme=10 / psy=1 / fade\_compensate=1.00 / psy\_rd=0.60:0.10 / mixed\_ref=1 / me\_range=32 / chroma\_me=1 / trellis=2 / 8x8dct=1 / cqm=0 / deadzone=21,11 / fast\_pskip=0 / chroma\_qp\_offset=-3 / threads=6 / lookahead\_threads=1 / sliced\_threads=0 / nr=0 / decimate=0 / interlaced=0 / bluray\_compat=0 / constrained\_intra=0 / fgo=0 / bframes=10 / b\_pyramid=2 / b\_adapt=2 / b\_bias=0 / direct=3 / weightb=1 / open\_gop=0 / weightp=2 / keyint=250 / keyint\_min=23 / scenecut=40 / intra\_refresh=0 / rc\_lookahead=60 / rc=crf / mbtree=1 / crf=18.0000 / qcomp=0.80 / qpmin=0 / qpmax=81 / qpstep=4 / ip\_ratio=1.40 / aq=3:0.90 / zones=3448,3597,q=30/3680,3949,q=30/4190,4228,q=30/4247,4308,q=30/4325,4333,q=30/4346,4365,q=30/4405,4515,q=30/34865,34960,q=36,no-deblock Language :Japanese Default :Yes Forced :No Color range :Limited Color primaries :BT.709 Transfer characteristics :BT.709 Matrix coefficients :BT.709 Audio [\#1](//www.nyaa.se/?page=view&tid=1) ID :2 Format :FLAC Format/Info :Free Lossless Audio Codec Codec ID :A\_FLAC Duration :24 min Bit rate mode :Variable Bit rate :3 166 kb/s Channel(s) :6 channels Channel positions :Front: L C R, Side: L R, LFE Sampling rate :48.0 kHz Frame rate :11.719 FPS (4096 spf) Bit depth :24 bits Delay relative to video :2 s 569 ms Stream size :559 MiB (24%) Title :FLAC 5.1 \[philosophy\] Writing library :libFLAC 1.3.0 (UTC 2013-05-26) Language :English Default :Yes Forced :No Audio [\#2](//www.nyaa.se/?page=view&tid=2) ID :3 Format :FLAC Format/Info :Free Lossless Audio Codec Codec ID :A\_FLAC Duration :24 min Bit rate mode :Variable Bit rate :3 242 kb/s Channel(s) :6 channels Channel positions :Front: L C R, Side: L R, LFE Sampling rate :48.0 kHz Frame rate :11.719 FPS (4096 spf) Bit depth :24 bits Stream size :573 MiB (25%) Title :FLAC 5.1 \[philosophy\] Writing library :libFLAC 1.3.0 (UTC 2013-05-26) Language :Japanese Default :No Forced :No Audio [\#3](//www.nyaa.se/?page=view&tid=3) ID :4 Format :AAC Format/Info :Advanced Audio Codec Format profile :LC Codec ID :A\_AAC Duration :24 min Bit rate :141 kb/s Channel(s) :2 channels Channel positions :Front: L R Sampling rate :48.0 kHz Frame rate :46.875 FPS (1024 spf) Compression mode :Lossy Stream size :24.9 MiB (1%) Title :Commentary - AAC 2.0 \[OZC\] Language :Japanese Default :No Forced :No Text [\#1](//www.nyaa.se/?page=view&tid=1) ID :5 Format :ASS Codec ID :S\_TEXT/ASS Codec ID/Info :Advanced Sub Station Alpha Duration :1 min Bit rate :154 b/s Count of elements :10 Compression mode :Lossless Stream size :1.28 KiB (0%) Title :Signs \[OZC\] Language :English Default :Yes Forced :No Text [\#2](//www.nyaa.se/?page=view&tid=2) ID :6 Format :ASS Codec ID :S\_TEXT/ASS Codec ID/Info :Advanced Sub Station Alpha Duration :21 min Bit rate :79 b/s Count of elements :224 Compression mode :Lossless Stream size :12.5 KiB (0%) Title :Subtitles \[OZC\] Language :Japanese Default :No Forced :No Text [\#3](//www.nyaa.se/?page=view&tid=3) ID :7 Format :ASS Codec ID :S\_TEXT/ASS Codec ID/Info :Advanced Sub Station Alpha Duration :21 min Bit rate :183 b/s Count of elements :452 Compression mode :Lossless Stream size :29.3 KiB (0%) Title :Commentary Subtitles \[OZC\] Language :Japanese Default :No Forced :No Menu 00:00:00.000 ::Prologue 00:00:48.911 ::Opening Credits 00:02:19.178 ::Part 1 00:12:24.640 ::Part 2 00:22:36.728 ::Ending Credits 00:24:11.895 ::Next Episode Preview

File list

  • Cowboy.Bebop.S01.1080p-Hi10p.BluRay.FLAC5.1.x264-CTR
    • Cowboy.Bebop.S00E01.Knockin.on.Heavens.Door.22.5.1080p-Hi10p.BluRay.FLAC5.1.x264.[22AE84B9].mkv (14.0 GiB)
    • Cowboy.Bebop.S01E01.1080p-Hi10p.BluRay.FLAC5.1.x264.[BD1B305A].mkv (2.3 GiB)
    • Cowboy.Bebop.S01E02.1080p-Hi10p.BluRay.FLAC5.1.x264.[B2835F83].mkv (2.2 GiB)
    • Cowboy.Bebop.S01E03.1080p-Hi10p.BluRay.FLAC5.1.x264.[7F4BBFEF].mkv (2.2 GiB)
    • Cowboy.Bebop.S01E04.1080p-Hi10p.BluRay.FLAC5.1.x264.[E548716B].mkv (2.2 GiB)
    • Cowboy.Bebop.S01E05.1080p-Hi10p.BluRay.FLAC5.1.x264.[D001B604].mkv (2.0 GiB)
    • Cowboy.Bebop.S01E06.1080p-Hi10p.BluRay.FLAC5.1.x264.[05C3F235].mkv (2.1 GiB)
    • Cowboy.Bebop.S01E07.1080p-Hi10p.BluRay.FLAC5.1.x264.[DBF2D4F0].mkv (2.2 GiB)
    • Cowboy.Bebop.S01E08.1080p-Hi10p.BluRay.FLAC5.1.x264.[D7FB7133].mkv (2.1 GiB)
    • Cowboy.Bebop.S01E09.1080p-Hi10p.BluRay.FLAC5.1.x264.[D620CF28].mkv (2.1 GiB)
    • Cowboy.Bebop.S01E10.1080p-Hi10p.BluRay.FLAC5.1.x264.[6FBC9F1B].mkv (2.2 GiB)
    • Cowboy.Bebop.S01E11.1080p-Hi10p.BluRay.FLAC5.1.x264.[6DFB3EA4].mkv (2.2 GiB)
    • Cowboy.Bebop.S01E12.1080p-Hi10p.BluRay.FLAC5.1.x264.[B49BD36A].mkv (2.1 GiB)
    • Cowboy.Bebop.S01E13.1080p-Hi10p.BluRay.FLAC5.1.x264.[D932FD63].mkv (2.5 GiB)
    • Cowboy.Bebop.S01E14.1080p-Hi10p.BluRay.FLAC5.1.x264.[65D2C5FC].mkv (1.8 GiB)
    • Cowboy.Bebop.S01E15.1080p-Hi10p.BluRay.FLAC5.1.x264.[F8BD5A0C].mkv (1.9 GiB)
    • Cowboy.Bebop.S01E16.1080p-Hi10p.BluRay.FLAC5.1.x264.[4E107492].mkv (1.9 GiB)
    • Cowboy.Bebop.S01E17.1080p-Hi10p.BluRay.FLAC5.1.x264.[6A57001F].mkv (1.8 GiB)
    • Cowboy.Bebop.S01E18.1080p-Hi10p.BluRay.FLAC5.1.x264.[7119DC14].mkv (1.9 GiB)
    • Cowboy.Bebop.S01E19.1080p-Hi10p.BluRay.FLAC5.1.x264.[D292BDE1].mkv (1.7 GiB)
    • Cowboy.Bebop.S01E20.1080p-Hi10p.BluRay.FLAC5.1.x264.[3CC68BC2].mkv (1.9 GiB)
    • Cowboy.Bebop.S01E21.1080p-Hi10p.BluRay.FLAC5.1.x264.[01AC521F].mkv (1.9 GiB)
    • Cowboy.Bebop.S01E22.1080p-Hi10p.BluRay.FLAC5.1.x264.[B413F5B1].mkv (1.9 GiB)
    • Cowboy.Bebop.S01E23.1080p-Hi10p.BluRay.FLAC5.1.x264.[18CC8D45].mkv (2.2 GiB)
    • Cowboy.Bebop.S01E24.1080p-Hi10p.BluRay.FLAC5.1.x264.[2DBEB0D5].mkv (1.8 GiB)
    • Cowboy.Bebop.S01E25.1080p-Hi10p.BluRay.FLAC5.1.x264.[35ECA908].mkv (1.9 GiB)
    • Cowboy.Bebop.S01E26.1080p-Hi10p.BluRay.FLAC5.1.x264.[98B688A2].mkv (1.8 GiB)
You made some very odd decisions with the subs. What if I want to watch English audio with English subs?
I have never seen an anime torrent with english audio and english subs.
There is also Japanese audio, hence the subs you morons. This is how any any high quality rip is done. Eng signs, Eng subs and Eng commentary subs. Pull your heads in and say thanks you pricks. Thanks to the uploader, this is by far the best release I have found and I have checked numerous private sites.
i agree with Cursewords. Great release. noobs will be noobs.
Please add seed.....
Extracted attachments can be found [here](https://mega.nz/file/njoDSTCR#7Il2Kdluml40t9LThS_O8FzEQjMd1OvSmjvG_5fid4E) ([mirror](https://share.dmca.gripe/lqDa6nYci65mBp9j.7z)). It seems that this release and OZC's original one are missing the Japanese audio commentary track for episode 11. The raw audio extracted from [Moozzi2's release](https://nyaa.si/view/887137) (~80 MiB) can be found [here](https://mega.nz/file/znRDlISK#vXe2hFvYGFOJgQT_g1QH565IVgn_r6QNJEZYPZsNpkg) ([mirror](https://share.dmca.gripe/HFBPtjYmfJkGRVPu.7z)).
@hozjiwpoo4jt221 - Thank you so much! Is there an efficient way to mux all of the attacments (subs, fonts, chapters etc) into .mkv file at once?
@elippa - MKVToolNix
Yeee haaa Back to the 90s Love this show thank you
Thanks CTR for the amazing upload.. Also, cursewords for the funny but true reply, and hozjiwpoo4jt221 for the links..
Anyone know what he sourced from to make this? Specifically looking for either the Italian BD's or the Selecta Vision BD's
So he's using the Japanese BD's but he scrubbed away the grain. Don't download if you must have grain.
@hozjiwpoo4jt221 do you have subs for the JP commentary for ep11?
I think this release is probably the best. The image is really nice, clean, and sharp. Subtitles looks really good. Audio sounds pretty good. The videos also have proper chapter segmentation for easy navigation.

GSR

User
@WuTangKlann1 if you want grain at a decent size, grab Encodergasm's release (460256). Doesn't have FLAC audio or commentary, but you could mux all that in (perfectly in sync with this release).