Space Dandy S01 1080p Hi10p BluRay FLAC5.1 x264 [CTR] (English Dubbed Dual Audio) (Includes season 2)

Category:
Date:
2016-09-10 13:32 UTC
Submitter:
Seeders:
4
File size:
47.2 GiB
Completed:
150
Info hash:
4e3d2d35f73e337ba06dc417cbe2930f5e068d5f
**[Release Thread](http://kametsu.com/topic/55442-megatorrent-ctr-space-dandy-1080p-hi10pflac-51-dual-audio-happy-now-etzimal/) | [Index](http://kametsu.com/topic/54803-the-ctr-index-your-new-home-for-bloated-1080p-dual-audio-releases/)** Improvement over deanzel s01: FLAC 5.1 English audio, minor fixes to Signs track. Also includes second half of the show (E14-E26). Done by request. Media Details Video Track: 1080p-Hi10p (Zero-Raws / Salender-Raws) (First half / Second half) ([Comparison](http://screenshotcomparison.com/comparison/184089/) between Zero and Salender) Audio Track 1 (Default): English 5.1 FLAC (CTR / Etzimal) Audio Track 2: Japanese 2.0 FLAC (Zero-Raws / Salender-Raws) Subtitle Track 1 (Default): English Signs (.ASS) (Commie / FelineYogi) Subtitle Track 2: English Dialogue (.ASS) (Commie / FelineYogi) Chapters General Unique ID : 228820211035349895207340251732897272805 (0xAC252B6CF69DCA0A990359D299C993E5) Complete name : S:\\Anime\\Space Dandy\\Season 1\\Space.Dandy.S01E01.1080p-Hi10p.BluRay.FLAC5.1.x264-CTR.\[C35AE265\].mkv Format : Matroska Format version : Version 4 / Version 2 File size : 1.70 GiB Duration : 24 min Overall bit rate mode : Variable Overall bit rate : 10.0 Mb/s Encoded date : UTC 2016-09-10 04:39:20 Writing application : mkvmerge v9.4.0 ('Knurl') 64bit Writing library : libebml v1.3.4 + libmatroska v1.4.5 Attachments : Franchise-Bold-hinted.ttf / KozGoProH-Madoka.ttf / MuseoSansRounded300.ttf / MuseoSansRounded900.ttf / Signika-Semibold.otf / Yryr minc R.ttf / Candara.ttf / Candarab.ttf / jesaya free.ttf Video ID : 1 Format : AVC Format/Info : Advanced Video Codec Format profile : High 10@L5.1 Format settings, CABAC : Yes Format settings, ReFrames : 16 frames Codec ID : V\_MPEG4/ISO/AVC Duration : 24 min Bit rate : 6 732 kb/s Width : 1 920 pixels Height : 1 080 pixels Display aspect ratio : 16:9 Frame rate mode : Constant Frame rate : 23.976 (24000/1001) FPS Color space : YUV Chroma subsampling : 4:2:0 Bit depth : 10 bits Scan type : Progressive Bits/(Pixel\*Frame) : 0.135 Stream size : 1.14 GiB (67%) Title : Zero-Raws Language : Japanese Default : Yes Forced : No Audio [\#1](//www.nyaa.se/?page=view&tid=1) ID : 2 Format : FLAC Format/Info : Free Lossless Audio Codec Codec ID : A\_FLAC Duration : 24 min Bit rate mode : Variable Bit rate : 1 787 kb/s Channel(s) : 6 channels Channel positions : Front: L C R, Side: L R, LFE Sampling rate : 48.0 kHz Frame rate : 11.719 FPS (4096 spf) Bit depth : 16 bits Stream size : 309 MiB (18%) Title : FLAC 5.1 \[CTR\] Writing library : libFLAC 1.2.1 (UTC 2007-09-17) Language : English Default : Yes Forced : No Audio [\#2](//www.nyaa.se/?page=view&tid=2) ID : 3 Format : FLAC Format/Info : Free Lossless Audio Codec Codec ID : A\_FLAC Duration : 24 min Bit rate mode : Variable Bit rate : 1 527 kb/s Channel(s) : 2 channels Channel positions : Front: L R Sampling rate : 48.0 kHz Frame rate : 11.719 FPS (4096 spf) Bit depth : 24 bits Stream size : 264 MiB (15%) Title : FLAC 2.0 \[Zero\] Writing library : libFLAC 1.3.0 (UTC 2013-05-26) Language : Japanese Default : No Forced : No Text [\#1](//www.nyaa.se/?page=view&tid=1) ID : 4 Format : ASS Codec ID : S\_TEXT/ASS Codec ID/Info : Advanced Sub Station Alpha Duration : 23 min Bit rate : 96 b/s Count of elements : 111 Compression mode : Lossless Stream size : 16.4 KiB (0%) Title : Signs \[Commie\] Language : English Default : Yes Forced : No Text [\#2](//www.nyaa.se/?page=view&tid=2) ID : 5 Format : ASS Codec ID : S\_TEXT/ASS Codec ID/Info : Advanced Sub Station Alpha Duration : 24 min Bit rate : 186 b/s Count of elements : 428 Compression mode : Lossless Stream size : 32.9 KiB (0%) Title : Subtitles \[Commie\] Language : Japanese Default : No Forced : No Menu 00:00:00.000 : :Intro 00:00:42.042 : :OP 00:02:13.009 : :Part A 00:11:19.015 : :Part B 00:22:25.017 : :ED 00:23:54.982 : :Preview

File list

  • Space.Dandy.S01.1080p-Hi10p.BluRay.FLAC5.1.x264-CTR
    • Space.Dandy.S01E01.1080p-Hi10p.BluRay.FLAC5.1.x264-CTR.[C35AE265].mkv (1.7 GiB)
    • Space.Dandy.S01E02.1080p-Hi10p.BluRay.FLAC5.1.x264-CTR.[A359BFF1].mkv (1.6 GiB)
    • Space.Dandy.S01E03.1080p-Hi10p.BluRay.FLAC5.1.x264-CTR.[F02B0A2B].mkv (1.6 GiB)
    • Space.Dandy.S01E04.1080p-Hi10p.BluRay.FLAC5.1.x264-CTR.[95C2D652].mkv (1.4 GiB)
    • Space.Dandy.S01E05.1080p-Hi10p.BluRay.FLAC5.1.x264-CTR.[57F38A76].mkv (1.3 GiB)
    • Space.Dandy.S01E06.1080p-Hi10p.BluRay.FLAC5.1.x264-CTR.[E7D916BE].mkv (1.5 GiB)
    • Space.Dandy.S01E07.1080p-Hi10p.BluRay.FLAC5.1.x264-CTR.[3214F799].mkv (1.9 GiB)
    • Space.Dandy.S01E08.1080p-Hi10p.BluRay.FLAC5.1.x264-CTR.[9E85815E].mkv (1.5 GiB)
    • Space.Dandy.S01E09.1080p-Hi10p.BluRay.FLAC5.1.x264-CTR.[22C6BAC3].mkv (1.3 GiB)
    • Space.Dandy.S01E10.1080p-Hi10p.BluRay.FLAC5.1.x264-CTR.[5B230DEF].mkv (1.4 GiB)
    • Space.Dandy.S01E11.1080p-Hi10p.BluRay.FLAC5.1.x264-CTR.[44E2FC89].mkv (1.5 GiB)
    • Space.Dandy.S01E12.1080p-Hi10p.BluRay.FLAC5.1.x264-CTR.[D3FFE46F].mkv (1.5 GiB)
    • Space.Dandy.S01E13.1080p-Hi10p.BluRay.FLAC5.1.x264-CTR.[CCC7C608].mkv (1.5 GiB)
    • Space.Dandy.S01E14.1080p-Hi10p.BluRay.FLAC5.1.x264-CTR.[96A3E8D8].mkv (1.8 GiB)
    • Space.Dandy.S01E15.1080p-Hi10p.BluRay.FLAC5.1.x264-CTR.[B690B86B].mkv (1.8 GiB)
    • Space.Dandy.S01E16.1080p-Hi10p.BluRay.FLAC5.1.x264-CTR.[1E68A7F6].mkv (2.0 GiB)
    • Space.Dandy.S01E17.1080p-Hi10p.BluRay.FLAC5.1.x264-CTR.[C2400E01].mkv (1.7 GiB)
    • Space.Dandy.S01E18.1080p-Hi10p.BluRay.FLAC5.1.x264-CTR.[09AD7352].mkv (1.7 GiB)
    • Space.Dandy.S01E19.1080p-Hi10p.BluRay.FLAC5.1.x264-CTR.[FF5BC9FD].mkv (1.7 GiB)
    • Space.Dandy.S01E20.1080p-Hi10p.BluRay.FLAC5.1.x264-CTR.[5F7C5C49].mkv (1.9 GiB)
    • Space.Dandy.S01E21.1080p-Hi10p.BluRay.FLAC5.1.x264-CTR.[2BD8A216].mkv (1.7 GiB)
    • Space.Dandy.S01E22.1080p-Hi10p.BluRay.FLAC5.1.x264-CTR.[EECC2F69].mkv (2.6 GiB)
    • Space.Dandy.S01E23.1080p-Hi10p.BluRay.FLAC5.1.x264-CTR.[38F69118].mkv (1.6 GiB)
    • Space.Dandy.S01E24.1080p-Hi10p.BluRay.FLAC5.1.x264-CTR.[D74C4863].mkv (2.6 GiB)
    • Space.Dandy.S01E25.1080p-Hi10p.BluRay.FLAC5.1.x264-CTR.[D3F7D250].mkv (3.4 GiB)
    • Space.Dandy.S01E26.1080p-Hi10p.BluRay.FLAC5.1.x264-CTR.[5A97D456].mkv (3.0 GiB)
need seeds please
Stuck at 42%. Give me a hand here!
Thanks, I'll be seeding this for a while :)