Phantom Requiem for the Phantom S01 1080p Hi10p BluRay FLAC5.1 x264 [CTR] (English Dubbed Dual Audio)

Category:
Date:
2016-09-09 10:47 UTC
Submitter:
Seeders:
1
File size:
59.6 GiB
Completed:
390
Info hash:
7f00014f6bdd4e7d3606ebb532a9901b2ac3d068
**[Release Thread](http://kametsu.com/topic/55430-megatorrent-ctr-phantom-requiem-for-the-phantom-720p-1080p-10bitaac-51-flac-51-dual-audio-double-the-subs-double-the-fun/) | [Index](http://kametsu.com/topic/54803-the-ctr-index-your-new-home-for-bloated-1080p-dual-audio-releases/)** **NOTICE**: The files (and torrent) are incorrectly labeled as 10-bit video. Yousei-Raws released 8bit in this case. The quality is still up to par, however. Apologies for the mixup. Video Track: 1080p (Yousei-Raws) Audio Track 1 (Default): English 5.1 FLAC (CTR) Audio Track 2: Japanese 2.0 FLAC (Yousei-Raws) Subtitle Track 1 (Default): English Signs (.ASS) (Coalgirls- lightly edited) Subtitle Track 2: English Dialogue (.ASS) (Coalgirls- retimed) Subtitle Track 3: English Dialogue (.ASS) (Cman21) Subtitle Track 4: English Signs (.PGS) (Funimation) Subtitle Track 5: English Dialogue (.ASS) (Funimation) Chapters General Unique ID : 237281375238957810745771776596951147927 (0xB282BB0768D1EF74A43C6A7EA87FA597) Complete name : Phantom.Requiem.for.the.Phantom.S01E01.1080p-Hi10p.BluRay.FLAC5.1.x264-CTR.\[75CB4E3C\].mkv Format : Matroska Format version : Version 4 / Version 2 File size : 2.11 GiB Duration : 23 min Overall bit rate mode : Variable Overall bit rate : 12.8 Mb/s Movie name : Phantom - Requiem for the Phantom - 01 Encoded date : UTC 2016-09-08 20:57:00 Writing application : mkvmerge v9.4.0 ('Knurl') 64bit Writing library : libebml v1.3.4 + libmatroska v1.4.5 Attachments : DINNeuzeitGrotesk-Light-Regular.ttf / PARCHM.TTF / BLKCHCRY.TTF / CerigoStd-MediumM.ttf / dreamorb.ttf / epkaisho.ttf / ligurino cond.otf Video ID : 1 Format : AVC Format/Info : Advanced Video Codec Format profile : High@L4.1 Format settings, CABAC : Yes Format settings, ReFrames : 4 frames Codec ID : V\_MPEG4/ISO/AVC Duration : 23 min Bit rate : 10.6 Mb/s Width : 1 920 pixels Height : 1 080 pixels Display aspect ratio : 16:9 Frame rate mode : Constant Frame rate : 23.976 (24000/1001) FPS Color space : YUV Chroma subsampling : 4:2:0 Bit depth : 8 bits Scan type : Progressive Bits/(Pixel\*Frame) : 0.214 Stream size : 1.75 GiB (83%) Title : Yousei-Raws Writing library : x264 core 114 r1924 08d04a4 Encoding settings : cabac=1 / ref=4 / deblock=1:-2:-2 / analyse=0x3:0x133 / me=umh / subme=9 / psy=1 / psy\_rd=0.90:0.00 / mixed\_ref=1 / me\_range=24 / chroma\_me=1 / trellis=2 / 8x8dct=1 / cqm=0 / deadzone=21,11 / fast\_pskip=1 / chroma\_qp\_offset=-2 / threads=18 / sliced\_threads=0 / nr=0 / decimate=0 / interlaced=0 / constrained\_intra=0 / bframes=8 / b\_pyramid=2 / b\_adapt=2 / b\_bias=0 / direct=3 / weightb=1 / open\_gop=0 / weightp=2 / keyint=250 / keyint\_min=23 / scenecut=40 / intra\_refresh=0 / rc\_lookahead=40 / rc=2pass / mbtree=0 / bitrate=10649 / ratetol=1.0 / qcomp=0.80 / qpmin=9 / qpmax=30 / qpstep=4 / cplxblur=20.0 / qblur=0.5 / vbv\_maxrate=40000 / vbv\_bufsize=62500 / nal\_hrd=none / ip\_ratio=1.40 / pb\_ratio=1.30 / aq=1:0.90 Language : Japanese Default : Yes Forced : No Audio [\#1](//www.nyaa.se/?page=view&tid=1) ID : 2 Format : FLAC Format/Info : Free Lossless Audio Codec Codec ID : A\_FLAC Duration : 23 min Bit rate mode : Variable Bit rate : 1 468 kb/s Channel(s) : 6 channels Channel positions : Front: L C R, Side: L R, LFE Sampling rate : 48.0 kHz Frame rate : 10.417 FPS (4608 spf) Bit depth : 16 bits Delay relative to video : 56 ms Stream size : 248 MiB (11%) Title : FLAC 5.1 \[CTR\] Language : English Default : Yes Forced : No Audio [\#2](//www.nyaa.se/?page=view&tid=2) ID : 3 Format : FLAC Format/Info : Free Lossless Audio Codec Codec ID : A\_FLAC Duration : 23 min Bit rate mode : Variable Bit rate : 677 kb/s Channel(s) : 2 channels Channel positions : Front: L R Sampling rate : 48.0 kHz Frame rate : 11.719 FPS (4096 spf) Bit depth : 16 bits Stream size : 114 MiB (5%) Title : FLAC 2.0 \[Yousei\] Writing library : libFLAC 1.2.1 (UTC 2007-09-17) Language : Japanese Default : No Forced : No Text [\#1](//www.nyaa.se/?page=view&tid=1) ID : 4 Format : ASS Codec ID : S\_TEXT/ASS Codec ID/Info : Advanced Sub Station Alpha Duration : 21 min Bit rate : 22 b/s Count of elements : 58 Compression mode : Lossless Stream size : 3.48 KiB (0%) Title : Signs \[Coalgirls\] Language : English Default : Yes Forced : No Text [\#2](//www.nyaa.se/?page=view&tid=2) ID : 5 Format : ASS Codec ID : S\_TEXT/ASS Codec ID/Info : Advanced Sub Station Alpha Duration : 23 min Bit rate : 95 b/s Count of elements : 260 Compression mode : Lossless Stream size : 16.5 KiB (0%) Title : Subtitles \[Coalgirls\] Language : Japanese Default : No Forced : No Text [\#3](//www.nyaa.se/?page=view&tid=3) ID : 6 Format : ASS Codec ID : S\_TEXT/ASS Codec ID/Info : Advanced Sub Station Alpha Duration : 23 min Bit rate : 66 b/s Count of elements : 222 Compression mode : Lossless Stream size : 11.4 KiB (0%) Title : Subtitles \[Cman21\] Language : Japanese Default : No Forced : No Text [\#4](//www.nyaa.se/?page=view&tid=4) ID : 7 Format : PGS Muxing mode : zlib Codec ID : S\_HDMV/PGS Codec ID/Info : Picture based subtitle format used on BDs/HD-DVDs Duration : 21 min Bit rate : 1 084 b/s Count of elements : 50 Stream size : 168 KiB (0%) Title : Signs \[Funimation\] Language : English Default : No Forced : No Text [\#5](//www.nyaa.se/?page=view&tid=5) ID : 8 Format : PGS Muxing mode : zlib Codec ID : S\_HDMV/PGS Codec ID/Info : Picture based subtitle format used on BDs/HD-DVDs Duration : 23 min Bit rate : 7 018 b/s Count of elements : 390 Stream size : 1.18 MiB (0%) Title : Subtitles \[Funimation\] Language : Japanese Default : No Forced : No Menu 00:00:00.000 : en:Prologue 00:01:55.073 : en:Opening 00:03:25.079 : en:Part A 00:11:09.085 : en:Part B 00:21:49.141 : en:Ending 00:23:19.137 : en:Preview

File list

  • Phantom.Requiem.for.the.Phantom.S01.1080p-Hi10p.BluRay.FLAC5.1.x264-CTR
    • Phantom.Requiem.for.the.Phantom.S01E01.1080p-Hi10p.BluRay.FLAC5.1.x264-CTR.[75CB4E3C].mkv (2.1 GiB)
    • Phantom.Requiem.for.the.Phantom.S01E02.1080p-Hi10p.BluRay.FLAC5.1.x264-CTR.[9CC824FD].mkv (2.1 GiB)
    • Phantom.Requiem.for.the.Phantom.S01E03.1080p-Hi10p.BluRay.FLAC5.1.x264-CTR.[A42929D8].mkv (2.5 GiB)
    • Phantom.Requiem.for.the.Phantom.S01E04.1080p-Hi10p.BluRay.FLAC5.1.x264-CTR.[FB2B8937].mkv (2.3 GiB)
    • Phantom.Requiem.for.the.Phantom.S01E05.1080p-Hi10p.BluRay.FLAC5.1.x264-CTR.[A431D9FC].mkv (2.2 GiB)
    • Phantom.Requiem.for.the.Phantom.S01E06.1080p-Hi10p.BluRay.FLAC5.1.x264-CTR.[B5164872].mkv (2.7 GiB)
    • Phantom.Requiem.for.the.Phantom.S01E07.1080p-Hi10p.BluRay.FLAC5.1.x264-CTR.[DE13DFB5].mkv (2.4 GiB)
    • Phantom.Requiem.for.the.Phantom.S01E08.1080p-Hi10p.BluRay.FLAC5.1.x264-CTR.[1FF8BBDE].mkv (3.1 GiB)
    • Phantom.Requiem.for.the.Phantom.S01E09.1080p-Hi10p.BluRay.FLAC5.1.x264-CTR.[8FD751EB].mkv (2.4 GiB)
    • Phantom.Requiem.for.the.Phantom.S01E10.1080p-Hi10p.BluRay.FLAC5.1.x264-CTR.[C7B68BAE].mkv (2.7 GiB)
    • Phantom.Requiem.for.the.Phantom.S01E11.1080p-Hi10p.BluRay.FLAC5.1.x264-CTR.[6FE84ACE].mkv (2.6 GiB)
    • Phantom.Requiem.for.the.Phantom.S01E12.1080p-Hi10p.BluRay.FLAC5.1.x264-CTR.[09BEF03F].mkv (2.6 GiB)
    • Phantom.Requiem.for.the.Phantom.S01E13.1080p-Hi10p.BluRay.FLAC5.1.x264-CTR.[3C413F28].mkv (2.3 GiB)
    • Phantom.Requiem.for.the.Phantom.S01E14.1080p-Hi10p.BluRay.FLAC5.1.x264-CTR.[38F4C6ED].mkv (2.3 GiB)
    • Phantom.Requiem.for.the.Phantom.S01E15.1080p-Hi10p.BluRay.FLAC5.1.x264-CTR.[7E546D1A].mkv (2.0 GiB)
    • Phantom.Requiem.for.the.Phantom.S01E16.1080p-Hi10p.BluRay.FLAC5.1.x264-CTR.[FB7E796D].mkv (2.1 GiB)
    • Phantom.Requiem.for.the.Phantom.S01E17.1080p-Hi10p.BluRay.FLAC5.1.x264-CTR.[9D9CBE47].mkv (2.6 GiB)
    • Phantom.Requiem.for.the.Phantom.S01E18.1080p-Hi10p.BluRay.FLAC5.1.x264-CTR.[27A0E141].mkv (2.2 GiB)
    • Phantom.Requiem.for.the.Phantom.S01E19.1080p-Hi10p.BluRay.FLAC5.1.x264-CTR.[69940220].mkv (2.0 GiB)
    • Phantom.Requiem.for.the.Phantom.S01E20.1080p-Hi10p.BluRay.FLAC5.1.x264-CTR.[CFF70F83].mkv (2.0 GiB)
    • Phantom.Requiem.for.the.Phantom.S01E21.1080p-Hi10p.BluRay.FLAC5.1.x264-CTR.[3EC69655].mkv (2.0 GiB)
    • Phantom.Requiem.for.the.Phantom.S01E22.1080p-Hi10p.BluRay.FLAC5.1.x264-CTR.[F2B4E87F].mkv (2.0 GiB)
    • Phantom.Requiem.for.the.Phantom.S01E23.1080p-Hi10p.BluRay.FLAC5.1.x264-CTR.[1AC10333].mkv (2.1 GiB)
    • Phantom.Requiem.for.the.Phantom.S01E24.1080p-Hi10p.BluRay.FLAC5.1.x264-CTR.[347AEB34].mkv (2.0 GiB)
    • Phantom.Requiem.for.the.Phantom.S01E25.1080p-Hi10p.BluRay.FLAC5.1.x264-CTR.[8324BBDF].mkv (2.3 GiB)
    • Phantom.Requiem.for.the.Phantom.S01E26.1080p-Hi10p.BluRay.FLAC5.1.x264-CTR.[EEC27B78].mkv (2.1 GiB)
Where can i get just the subtitles?
[Subtitles](https://animetosho.org/view/phantom-requiem-s01-720p-hi10p-bluray-aac5-1.1018829)
Ep. 22 dub is out of sync