NANA S01 480p DVDRip AC32.0 x264 [CTR] (English Dubbed Dual Audio) (NANA 2006)

Category:
Date:
2016-09-07 12:51 UTC
Submitter:
Seeders:
0
File size:
15.7 GiB
Completed:
143
Info hash:
d372fb07e06a17d7765adc62fa31769f89ea8cbc
**[Release Thread](http://kametsu.com/topic/55416-megatorrent-ctr-nana-2006-dvd-480pac3-20-dual-audio-finally-providing-a-worthwhile-english-version-of-this-show/) | [Index](http://kametsu.com/topic/54803-the-ctr-index-your-new-home-for-bloated-1080p-dual-audio-releases/)** Media Details Video Track: 480p (Utsukushii-Raws) Audio Track 1 (Default): English 2.0 AC3 (Exiled-Destiny) Audio Track 2: Japanese 2.0 AC3 (Utsukushii-Raws) Subtitle Track 1 (Default): English Signs (.ASS) (Jinsei /CTR- heavy editing) Subtitle Track 2: English Dialogue (.ASS) (Jinsei - light editing) Jinsei's subs are sourced from Ureshii and IY-F. My edits fix a few minor grammar issues and a couple sign issues, and for the English version significant edits to match the English dub. Video source is the same as Jinsei. General Unique ID : 218299878282960895618815186840098707360 (0xA43B06F9788EFA178850347CE67017A0) Complete name : S:\\Anime\\NANA\\Season 1\\NANA.S01E01.480p.DVDRip.AC32.0.x264-CTR.\[E57A3FA1\].mkv Format : Matroska Format version : Version 4 / Version 2 File size : 345 MiB Duration : 22 min Overall bit rate : 2 163 kb/s Encoded date : UTC 2016-09-07 02:30:33 Writing application : mkvmerge v9.4.0 ('Knurl') 64bit Writing library : libebml v1.3.4 + libmatroska v1.4.5 Attachments : Gabriola.ttf / Gabriola\_0.ttf / JennaSue.ttf / lcddot.ttf / MARYJM.ttf / Nokian.ttf / nyala.ttf / nyala\_0.ttf / verdana.ttf / WaitingfortheSunrise.ttf / arial.ttf / BLUEHIGH.TTF / calibri.ttf / contm.ttf Video ID : 1 Format : AVC Format/Info : Advanced Video Codec Format profile : High@L4.1 Format settings, CABAC : Yes Format settings, ReFrames : 4 frames Codec ID : V\_MPEG4/ISO/AVC Duration : 22 min Bit rate : 1 735 kb/s Width : 720 pixels Height : 480 pixels Display aspect ratio : 16:9 Frame rate mode : Variable Frame rate : 24.294 FPS Original frame rate : 23.976 (24000/1001) FPS Color space : YUV Chroma subsampling : 4:2:0 Bit depth : 8 bits Scan type : Progressive Bits/(Pixel\*Frame) : 0.207 Stream size : 277 MiB (80%) Title : \[Jinsei\] Writing library : x264 core 116 r2074 2641b9e Encoding settings : cabac=1 / ref=4 / deblock=1:-1:-1 / analyse=0x3:0x113 / me=umh / subme=9 / psy=1 / psy\_rd=1.00:0.00 / mixed\_ref=1 / me\_range=24 / chroma\_me=1 / trellis=2 / 8x8dct=1 / cqm=0 / deadzone=21,11 / fast\_pskip=0 / chroma\_qp\_offset=-2 / threads=3 / sliced\_threads=0 / nr=0 / decimate=1 / interlaced=0 / bluray\_compat=0 / constrained\_intra=0 / bframes=3 / b\_pyramid=0 / b\_adapt=2 / b\_bias=0 / direct=3 / weightb=1 / open\_gop=0 / weightp=2 / keyint=250 / keyint\_min=23 / scenecut=40 / intra\_refresh=0 / rc\_lookahead=40 / rc=crf / mbtree=1 / crf=16.0 / qcomp=0.70 / qpmin=10 / qpmax=51 / qpstep=4 / vbv\_maxrate=50000 / vbv\_bufsize=50000 / crf\_max=0.0 / nal\_hrd=none / ip\_ratio=1.40 / aq=1:0.90 Language : English Default : Yes Forced : No Audio [\#1](//www.nyaa.se/?page=view&tid=1) ID : 2 Format : AC-3 Format/Info : Audio Coding 3 Format profile : Dolby Digital Mode extension : CM (complete main) Format settings, Endianness : Big Codec ID : A\_AC3 Duration : 22 min Bit rate mode : Constant Bit rate : 192 kb/s Channel(s) : 2 channels Channel positions : Front: L R Sampling rate : 48.0 kHz Frame rate : 31.250 FPS (1536 spf) Compression mode : Lossy Stream size : 30.6 MiB (9%) Title : AC3 2.0 \[CTR\] Language : English Default : No Forced : No Audio [\#2](//www.nyaa.se/?page=view&tid=2) ID : 3 Format : AC-3 Format/Info : Audio Coding 3 Format profile : Dolby Digital Mode extension : CM (complete main) Format settings, Endianness : Big Codec ID : A\_AC3 Duration : 22 min Bit rate mode : Constant Bit rate : 192 kb/s Channel(s) : 2 channels Channel positions : Front: L R Sampling rate : 48.0 kHz Frame rate : 31.250 FPS (1536 spf) Compression mode : Lossy Stream size : 30.6 MiB (9%) Title : AC3 2.0 \[Jinsei\] Language : Japanese Default : Yes Forced : No Text [\#1](//www.nyaa.se/?page=view&tid=1) ID : 4 Format : ASS Codec ID : S\_TEXT/ASS Codec ID/Info : Advanced Sub Station Alpha Duration : 22 min Bit rate : 162 b/s Count of elements : 116 Compression mode : Lossless Stream size : 26.4 KiB (0%) Title : Signs \[Jinsei\] Language : English Default : Yes Forced : No Text [\#2](//www.nyaa.se/?page=view&tid=2) ID : 5 Format : ASS Codec ID : S\_TEXT/ASS Codec ID/Info : Advanced Sub Station Alpha Duration : 22 min Bit rate : 329 b/s Count of elements : 490 Compression mode : Lossless Stream size : 53.4 KiB (0%) Title : Subtitles \[Jinsei\] Language : Japanese Default : No Forced : No Menu 00:00:00.000 : en:Prologue 00:00:31.031 : en:Opening 00:01:57.242 : en:A-Part 00:10:37.094 : en:B-Part 00:21:08.058 : en:Ending

File list

  • NANA.S01.480p.DVDRip.AC32.0.x264-CTR
    • NANA.S00E01.Junkos.Room.11.5.480p.DVDRip.AC32.0.x264-CTR.[2B5E5B30].mkv (321.4 MiB)
    • NANA.S00E02.Junkos.Room.2.21.5.480p.DVDRip.AC32.0.x264-CTR.[561FD086].mkv (376.1 MiB)
    • NANA.S00E03.Junkos.Room.3.36.5.480p.DVDRip.AC32.0.x264-CTR.[04B9B0D7].mkv (300.1 MiB)
    • NANA.S01E01.480p.DVDRip.AC32.0.x264-CTR.[E57A3FA1].mkv (345.2 MiB)
    • NANA.S01E02.480p.DVDRip.AC32.0.x264-CTR.[14FBF69B].mkv (308.6 MiB)
    • NANA.S01E03.480p.DVDRip.AC32.0.x264-CTR.[810E1FD8].mkv (315.4 MiB)
    • NANA.S01E04.480p.DVDRip.AC32.0.x264-CTR.[21C56AD5].mkv (421.6 MiB)
    • NANA.S01E05.480p.DVDRip.AC32.0.x264-CTR.[D79F1041].mkv (400.2 MiB)
    • NANA.S01E06.480p.DVDRip.AC32.0.x264-CTR.[3E4DF5AD].mkv (339.0 MiB)
    • NANA.S01E07.480p.DVDRip.AC32.0.x264-CTR.[8818806D].mkv (318.9 MiB)
    • NANA.S01E08.480p.DVDRip.AC32.0.x264-CTR.[A2AD1924].mkv (305.6 MiB)
    • NANA.S01E09.480p.DVDRip.AC32.0.x264-CTR.[AA4712F4].mkv (254.2 MiB)
    • NANA.S01E10.480p.DVDRip.AC32.0.x264-CTR.[03D4F2BD].mkv (316.0 MiB)
    • NANA.S01E11.480p.DVDRip.AC32.0.x264-CTR.[60858D73].mkv (333.0 MiB)
    • NANA.S01E12.480p.DVDRip.AC32.0.x264-CTR.[D261B899].mkv (337.6 MiB)
    • NANA.S01E13.480p.DVDRip.AC32.0.x264-CTR.[09EA0A91].mkv (327.8 MiB)
    • NANA.S01E14.480p.DVDRip.AC32.0.x264-CTR.[DC7139C2].mkv (307.6 MiB)
    • NANA.S01E15.480p.DVDRip.AC32.0.x264-CTR.[2F90B709].mkv (357.7 MiB)
    • NANA.S01E16.480p.DVDRip.AC32.0.x264-CTR.[2BBD3690].mkv (299.4 MiB)
    • NANA.S01E17.480p.DVDRip.AC32.0.x264-CTR.[600B1856].mkv (350.6 MiB)
    • NANA.S01E18.480p.DVDRip.AC32.0.x264-CTR.[371435D3].mkv (336.4 MiB)
    • NANA.S01E19.480p.DVDRip.AC32.0.x264-CTR.[5DAC5198].mkv (326.6 MiB)
    • NANA.S01E20.480p.DVDRip.AC32.0.x264-CTR.[BA016B29].mkv (323.2 MiB)
    • NANA.S01E21.480p.DVDRip.AC32.0.x264-CTR.[3223F3ED].mkv (296.4 MiB)
    • NANA.S01E22.480p.DVDRip.AC32.0.x264-CTR.[6510EEDF].mkv (308.3 MiB)
    • NANA.S01E23.480p.DVDRip.AC32.0.x264-CTR.[C0CDDB4C].mkv (293.3 MiB)
    • NANA.S01E24.480p.DVDRip.AC32.0.x264-CTR.[7538751C].mkv (295.5 MiB)
    • NANA.S01E25.480p.DVDRip.AC32.0.x264-CTR.[D9B2ED6D].mkv (310.7 MiB)
    • NANA.S01E26.480p.DVDRip.AC32.0.x264-CTR.[38FFDA4F].mkv (325.7 MiB)
    • NANA.S01E27.480p.DVDRip.AC32.0.x264-CTR.[D31A8A04].mkv (322.2 MiB)
    • NANA.S01E28.480p.DVDRip.AC32.0.x264-CTR.[55C2FF6A].mkv (316.4 MiB)
    • NANA.S01E29.480p.DVDRip.AC32.0.x264-CTR.[D8FE795A].mkv (310.0 MiB)
    • NANA.S01E30.480p.DVDRip.AC32.0.x264-CTR.[F84ABF55].mkv (323.0 MiB)
    • NANA.S01E31.480p.DVDRip.AC32.0.x264-CTR.[886A4E4E].mkv (295.7 MiB)
    • NANA.S01E32.480p.DVDRip.AC32.0.x264-CTR.[6F562A91].mkv (293.5 MiB)
    • NANA.S01E33.480p.DVDRip.AC32.0.x264-CTR.[5678C689].mkv (303.7 MiB)
    • NANA.S01E34.480p.DVDRip.AC32.0.x264-CTR.[0806EE81].mkv (286.3 MiB)
    • NANA.S01E35.480p.DVDRip.AC32.0.x264-CTR.[1C2546CC].mkv (291.6 MiB)
    • NANA.S01E36.480p.DVDRip.AC32.0.x264-CTR.[712A2E5E].mkv (335.5 MiB)
    • NANA.S01E37.480p.DVDRip.AC32.0.x264-CTR.[7F9A42EB].mkv (322.1 MiB)
    • NANA.S01E38.480p.DVDRip.AC32.0.x264-CTR.[0D6CB9F9].mkv (338.2 MiB)
    • NANA.S01E39.480p.DVDRip.AC32.0.x264-CTR.[053D4278].mkv (304.6 MiB)
    • NANA.S01E40.480p.DVDRip.AC32.0.x264-CTR.[AC9ECD65].mkv (317.7 MiB)
    • NANA.S01E41.480p.DVDRip.AC32.0.x264-CTR.[A1D791B7].mkv (320.8 MiB)
    • NANA.S01E42.480p.DVDRip.AC32.0.x264-CTR.[412DD619].mkv (324.1 MiB)
    • NANA.S01E43.480p.DVDRip.AC32.0.x264-CTR.[C4E4B46F].mkv (322.6 MiB)
    • NANA.S01E44.480p.DVDRip.AC32.0.x264-CTR.[079409EC].mkv (323.0 MiB)
    • NANA.S01E45.480p.DVDRip.AC32.0.x264-CTR.[CE9D6825].mkv (350.3 MiB)
    • NANA.S01E46.480p.DVDRip.AC32.0.x264-CTR.[30AD094D].mkv (295.7 MiB)
    • NANA.S01E47.480p.DVDRip.AC32.0.x264-CTR.[00710F00].mkv (332.4 MiB)