Kill la Kill S01 1080p Hi10p BluRay FLAC2.0 x264 [CTR] (English Dubbed Dual Audio)

Category:
Date:
2016-09-06 12:36 UTC
Submitter:
Seeders:
1
File size:
47.5 GiB
Completed:
1572
Info hash:
62697332991ca5a115be3d7df3edc41232d09f7b
**[Release Thread](http://kametsu.com/topic/55401-megatorrent-ctr-kill-la-kill-bd-720p-1080p-10bitaac-20-flac-20-dual-audio-not-released-yet-looking-for-input-get-in-here-my-friends/) | [Index](http://kametsu.com/topic/54803-the-ctr-index-your-new-home-for-bloated-1080p-dual-audio-releases/)** Media Details Video Track: 1080p-Hi10p (FFF) Audio Track 1 (Default): English 2.0 FLAC (CTR / Koten\_Gars) Audio Track 2: Japanese 2.0 FLAC (FFF) Subtitle Track 1 (Default): English Signs (.ASS) (FFF) (Edit of Underwater) Subtitle Track 2: English Dialogue (.ASS) (FFF) (Edit of Underwater) General Unique ID : 234876767375409365945821764650961594139 (0xB0B39EB53C021B09AF5FAB6FC0CDE71B) Complete name : S:\\Anime\\Kill la Kill\\Kill.la.Kill.S01E01.1080p-Hi10p.BluRay.FLAC2.0.x264-CTR.\[98AA9B1C\].mkv Format : Matroska Format version : Version 4 / Version 2 File size : 1.97 GiB Duration : 24 min Overall bit rate mode : Variable Overall bit rate : 11.5 Mb/s Movie name : Kill la Kill - 01 - If Only I Had Thorns Like a Thistle Encoded date : UTC 2016-09-05 14:57:56 Writing application : mkvmerge v9.4.0 ('Knurl') 64bit Writing library : libebml v1.3.4 + libmatroska v1.4.5 Attachments : 123-and...-Regular.ttf / Babylon-27-Babylon-27.ttf / BeeMarkerInk.TTF / Franchise - Extra.ttf / HiraginoGyoDS-W4.ttf / Painfresco-Italic.ttf Video ID : 1 Format : AVC Format/Info : Advanced Video Codec Format profile : High 10@L5.1 Format settings, CABAC : Yes Format settings, ReFrames : 16 frames Codec ID : V\_MPEG4/ISO/AVC Duration : 24 min Bit rate : 9 195 kb/s Width : 1 920 pixels Height : 1 080 pixels Display aspect ratio : 16:9 Frame rate mode : Constant Frame rate : 23.976 (24000/1001) FPS Color space : YUV Chroma subsampling : 4:2:0 Bit depth : 10 bits Scan type : Progressive Bits/(Pixel\*Frame) : 0.185 Stream size : 1.57 GiB (80%) Title : FFF Writing library : x264 core 142 r2431+42 c69a006 tMod \[10-bit@4:2:0 X86\_64\] Encoding settings : cabac=1 / ref=16 / deblock=1:1:1 / analyse=0x3:0x133 / me=umh / subme=11 / psy=1 / fade\_compensate=1.00 / psy\_rd=0.93:0.23 / mixed\_ref=1 / me\_range=32 / chroma\_me=1 / trellis=2 / 8x8dct=1 / cqm=0 / deadzone=21,11 / fast\_pskip=0 / chroma\_qp\_offset=-4 / threads=12 / lookahead\_threads=3 / sliced\_threads=0 / nr=0 / decimate=1 / interlaced=0 / bluray\_compat=0 / constrained\_intra=0 / fgo=0 / bframes=16 / b\_pyramid=2 / b\_adapt=2 / b\_bias=0 / direct=3 / weightb=1 / open\_gop=0 / weightp=2 / keyint=250 / keyint\_min=23 / scenecut=40 / intra\_refresh=0 / rc\_lookahead=60 / rc=crf / mbtree=1 / crf=16.0000 / qcomp=0.70 / qpmin=0:0:0 / qpmax=81:81:81 / qpstep=4 / ip\_ratio=1.40 / aq=2:1.10 / aq-sensitivity=10.00 / aq-factor=1.00:1.00:1.00 / aq2=0 / aq3=0 Language : Japanese Default : Yes Forced : No Color range : Limited Color primaries : BT.709 Transfer characteristics : BT.709 Matrix coefficients : BT.709 Audio [\#1](//www.nyaa.se/?page=view&tid=1) ID : 2 Format : FLAC Format/Info : Free Lossless Audio Codec Codec ID : A\_FLAC Duration : 24 min Bit rate mode : Variable Bit rate : 784 kb/s Channel(s) : 2 channels Channel positions : Front: L R Sampling rate : 48.0 kHz Frame rate : 10.417 FPS (4608 spf) Bit depth : 16 bits Delay relative to video : 60 ms Stream size : 137 MiB (7%) Title : FLAC 2.0 \[K\_G\] Language : English Default : Yes Forced : No Audio [\#2](//www.nyaa.se/?page=view&tid=2) ID : 3 Format : FLAC Format/Info : Free Lossless Audio Codec Codec ID : A\_FLAC Duration : 24 min Bit rate mode : Variable Bit rate : 1 549 kb/s Channel(s) : 2 channels Channel positions : Front: L R Sampling rate : 48.0 kHz Frame rate : 11.720 FPS (4096 spf) Bit depth : 24 bits Stream size : 271 MiB (13%) Title : FLAC 2.0 \[FFF\] Writing library : libFLAC 1.3.1 (UTC 2014-11-25) Language : Japanese Default : No Forced : No Text [\#1](//www.nyaa.se/?page=view&tid=1) ID : 4 Format : ASS Codec ID : S\_TEXT/ASS Codec ID/Info : Advanced Sub Station Alpha Duration : 24 min Bit rate : 1 208 b/s Count of elements : 1810 Compression mode : Lossless Stream size : 216 KiB (0%) Title : Signs \[FFF\] Language : English Default : Yes Forced : No Text [\#2](//www.nyaa.se/?page=view&tid=2) ID : 5 Format : ASS Codec ID : S\_TEXT/ASS Codec ID/Info : Advanced Sub Station Alpha Duration : 24 min Bit rate : 1 329 b/s Count of elements : 2203 Compression mode : Lossless Stream size : 238 KiB (0%) Title : Subtitles \[FFF\] Language : Japanese Default : No Forced : No Menu 00:00:00.000 : en:Prologue 00:04:29.186 : en:Episode 00:22:42.027 : en:Ending 00:24:11.992 : en:Preview

File list

  • Kill.la.Kill.S01.1080p-Hi10p.BluRay.FLAC2.0.x264-CTR
    • Kill.la.Kill.S00E01.Last.Goodbye.1080p-Hi10p.BluRay.FLAC2.0.x264-CTR.[9829F380].mkv (2.2 GiB)
    • Kill.la.Kill.S01E01.1080p-Hi10p.BluRay.FLAC2.0.x264-CTR.[98AA9B1C].mkv (2.0 GiB)
    • Kill.la.Kill.S01E02.1080p-Hi10p.BluRay.FLAC2.0.x264-CTR.[02332B86].mkv (1.7 GiB)
    • Kill.la.Kill.S01E03.1080p-Hi10p.BluRay.FLAC2.0.x264-CTR.[43B1E610].mkv (1.8 GiB)
    • Kill.la.Kill.S01E04.1080p-Hi10p.BluRay.FLAC2.0.x264-CTR.[A2497F57].mkv (1.8 GiB)
    • Kill.la.Kill.S01E05.1080p-Hi10p.BluRay.FLAC2.0.x264-CTR.[93F476A1].mkv (1.5 GiB)
    • Kill.la.Kill.S01E06.1080p-Hi10p.BluRay.FLAC2.0.x264-CTR.[27A53FDA].mkv (2.0 GiB)
    • Kill.la.Kill.S01E07.1080p-Hi10p.BluRay.FLAC2.0.x264-CTR.[E3642994].mkv (1.7 GiB)
    • Kill.la.Kill.S01E08.1080p-Hi10p.BluRay.FLAC2.0.x264-CTR.[A2139F89].mkv (2.1 GiB)
    • Kill.la.Kill.S01E09.1080p-Hi10p.BluRay.FLAC2.0.x264-CTR.[E72A5CB2].mkv (2.2 GiB)
    • Kill.la.Kill.S01E10.1080p-Hi10p.BluRay.FLAC2.0.x264-CTR.[A641E09B].mkv (2.3 GiB)
    • Kill.la.Kill.S01E11.1080p-Hi10p.BluRay.FLAC2.0.x264-CTR.[4A86F6CC].mkv (2.0 GiB)
    • Kill.la.Kill.S01E12.1080p-Hi10p.BluRay.FLAC2.0.x264-CTR.[91FB3987].mkv (2.2 GiB)
    • Kill.la.Kill.S01E13.1080p-Hi10p.BluRay.FLAC2.0.x264-CTR.[4883C988].mkv (1.6 GiB)
    • Kill.la.Kill.S01E14.1080p-Hi10p.BluRay.FLAC2.0.x264-CTR.[81EBA4CC].mkv (1.9 GiB)
    • Kill.la.Kill.S01E15.1080p-Hi10p.BluRay.FLAC2.0.x264-CTR.[E7444453].mkv (2.1 GiB)
    • Kill.la.Kill.S01E16.1080p-Hi10p.BluRay.FLAC2.0.x264-CTR.[725EB32C].mkv (1.6 GiB)
    • Kill.la.Kill.S01E17.1080p-Hi10p.BluRay.FLAC2.0.x264-CTR.[D2C78C61].mkv (1.9 GiB)
    • Kill.la.Kill.S01E18.1080p-Hi10p.BluRay.FLAC2.0.x264-CTR.[99C42629].mkv (2.0 GiB)
    • Kill.la.Kill.S01E19.1080p-Hi10p.BluRay.FLAC2.0.x264-CTR.[0C6EAAF9].mkv (1.8 GiB)
    • Kill.la.Kill.S01E20.1080p-Hi10p.BluRay.FLAC2.0.x264-CTR.[1783DCA9].mkv (1.7 GiB)
    • Kill.la.Kill.S01E21.1080p-Hi10p.BluRay.FLAC2.0.x264-CTR.[DB242D03].mkv (1.9 GiB)
    • Kill.la.Kill.S01E22.1080p-Hi10p.BluRay.FLAC2.0.x264-CTR.[CABDC5F7].mkv (1.7 GiB)
    • Kill.la.Kill.S01E23.1080p-Hi10p.BluRay.FLAC2.0.x264-CTR.[69D490CF].mkv (2.0 GiB)
    • Kill.la.Kill.S01E24.1080p-Hi10p.BluRay.FLAC2.0.x264-CTR.[82FD3317].mkv (2.1 GiB)