Kill la Kill S01 720p Hi10p BluRay AAC2.0 x264 [CTR] (English Dubbed Dual Audio)

Category:
Date:
2016-09-06 12:36 UTC
Submitter:
Seeders:
1
File size:
22.6 GiB
Completed:
89
Info hash:
fba2bb56e19cb1709cff4cebc9aed21301db9a4b
**[Release Thread](http://kametsu.com/topic/55401-megatorrent-ctr-kill-la-kill-bd-720p-1080p-10bitaac-20-flac-20-dual-audio-not-released-yet-looking-for-input-get-in-here-my-friends/) | [Index](http://kametsu.com/topic/54803-the-ctr-index-your-new-home-for-bloated-1080p-dual-audio-releases/)** Media Details Video Track: 720p-Hi10p (FFF) Audio Track 1 (Default): English 2.0 AAC (CTR / Koten\_Gars) Audio Track 2: Japanese 2.0 AAC (FFF) Subtitle Track 1 (Default): English Signs (.ASS) (FFF) (Edit of Underwater) Subtitle Track 2: English Dialogue (.ASS) (FFF) (Edit of Underwater) General Unique ID : 217503116702605688970736320628094158571 (0xA3A193987C8E09E88F28B029024046EB) Complete name : Kill.la.Kill.S01E01.720p-Hi10p.BluRay.AAC2.0.x264-CTR.\[A832FBFB\].mkv Format : Matroska Format version : Version 4 / Version 2 File size : 982 MiB Duration : 24 min Overall bit rate : 5 609 kb/s Movie name : Kill la Kill - 01 - If Only I Had Thorns Like a Thistle Encoded date : UTC 2016-09-05 18:46:16 Writing application : mkvmerge v9.4.0 ('Knurl') 64bit Writing library : libebml v1.3.4 + libmatroska v1.4.5 Attachments : 123-and...-Regular.ttf / Babylon-27-Babylon-27.ttf / BeeMarkerInk.TTF / Franchise - Extra.ttf / HiraginoGyoDS-W4.ttf / Painfresco-Italic.ttf / Painfresco-Regular.ttf / Signika-Regular.otf Video ID : 1 Format : AVC Format/Info : Advanced Video Codec Format profile : High 10@L5 Format settings, CABAC : Yes Format settings, ReFrames : 16 frames Codec ID : V\_MPEG4/ISO/AVC Duration : 24 min Bit rate : 5 103 kb/s Width : 1 280 pixels Height : 720 pixels Display aspect ratio : 16:9 Frame rate mode : Constant Frame rate : 23.976 (24000/1001) FPS Color space : YUV Chroma subsampling : 4:2:0 Bit depth : 10 bits Scan type : Progressive Bits/(Pixel\*Frame) : 0.231 Stream size : 892 MiB (91%) Title : FFF Writing library : x264 core 142 r2431+42 c69a006 tMod \[10-bit@4:2:0 X86\_64\] Encoding settings : cabac=1 / ref=16 / deblock=1:1:1 / analyse=0x3:0x133 / me=umh / subme=11 / psy=1 / fade\_compensate=1.00 / psy\_rd=0.93:0.23 / mixed\_ref=1 / me\_range=32 / chroma\_me=1 / trellis=2 / 8x8dct=1 / cqm=0 / deadzone=21,11 / fast\_pskip=0 / chroma\_qp\_offset=-4 / threads=12 / lookahead\_threads=3 / sliced\_threads=0 / nr=0 / decimate=1 / interlaced=0 / bluray\_compat=0 / constrained\_intra=0 / fgo=0 / bframes=16 / b\_pyramid=2 / b\_adapt=2 / b\_bias=0 / direct=3 / weightb=1 / open\_gop=0 / weightp=2 / keyint=250 / keyint\_min=23 / scenecut=40 / intra\_refresh=0 / rc\_lookahead=60 / rc=crf / mbtree=1 / crf=16.0000 / qcomp=0.70 / qpmin=0:0:0 / qpmax=81:81:81 / qpstep=4 / ip\_ratio=1.40 / aq=3:1.10 / aq-sensitivity=10.00 / aq-factor=1.00:1.00:1.00 / aq2=0 / aq3=0 Language : Japanese Default : Yes Forced : No Color range : Limited Color primaries : BT.709 Transfer characteristics : BT.709 Matrix coefficients : BT.709 Audio [\#1](//www.nyaa.se/?page=view&tid=1) ID : 2 Format : AAC Format/Info : Advanced Audio Codec Format profile : LC Codec ID : A\_AAC Duration : 24 min Bit rate : 171 kb/s Channel(s) : 2 channels Channel positions : Front: L R Sampling rate : 48.0 kHz Frame rate : 46.875 FPS (1024 spf) Compression mode : Lossy Delay relative to video : 1 ms Stream size : 29.9 MiB (3%) Title : AAC 2.0 \[K\_G\] Language : English Default : Yes Forced : No Audio [\#2](//www.nyaa.se/?page=view&tid=2) ID : 3 Format : AAC Format/Info : Advanced Audio Codec Format profile : LC Codec ID : A\_AAC Duration : 24 min Bit rate : 331 kb/s Channel(s) : 2 channels Channel positions : Front: L R Sampling rate : 48.0 kHz Frame rate : 46.875 FPS (1024 spf) Compression mode : Lossy Delay relative to video : 20 ms Stream size : 57.9 MiB (6%) Title : AAC 2.0 \[FFF\] Language : Japanese Default : No Forced : No Text [\#1](//www.nyaa.se/?page=view&tid=1) ID : 4 Format : ASS Codec ID : S\_TEXT/ASS Codec ID/Info : Advanced Sub Station Alpha Duration : 24 min Bit rate : 1 208 b/s Count of elements : 1810 Compression mode : Lossless Stream size : 216 KiB (0%) Title : Signs \[FFF\] Language : English Default : Yes Forced : No Text [\#2](//www.nyaa.se/?page=view&tid=2) ID : 5 Format : ASS Codec ID : S\_TEXT/ASS Codec ID/Info : Advanced Sub Station Alpha Duration : 24 min Bit rate : 1 329 b/s Count of elements : 2203 Compression mode : Lossless Stream size : 238 KiB (0%) Title : Subtitles \[FFF\] Language : Japanese Default : No Forced : No Menu 00:00:00.000 : en:Prologue 00:04:29.186 : en:Episode 00:22:42.027 : en:Ending 00:24:11.992 : en:Preview

File list

  • Kill.la.Kill.S01.720p-Hi10p.BluRay.AAC2.0.x264-CTR
    • Kill.la.Kill.S00E01.Last.Goodbye.720p-Hi10p.BluRay.AAC2.0.x264-CTR.[2DCA4B32].mkv (1.1 GiB)
    • Kill.la.Kill.S01E01.720p-Hi10p.BluRay.AAC2.0.x264-CTR.[A832FBFB].mkv (981.8 MiB)
    • Kill.la.Kill.S01E02.720p-Hi10p.BluRay.AAC2.0.x264-CTR.[7740FE45].mkv (835.6 MiB)
    • Kill.la.Kill.S01E03.720p-Hi10p.BluRay.AAC2.0.x264-CTR.[C9D8C671].mkv (943.0 MiB)
    • Kill.la.Kill.S01E04.720p-Hi10p.BluRay.AAC2.0.x264-CTR.[23DEA22B].mkv (884.9 MiB)
    • Kill.la.Kill.S01E05.720p-Hi10p.BluRay.AAC2.0.x264-CTR.[6318884C].mkv (728.9 MiB)
    • Kill.la.Kill.S01E06.720p-Hi10p.BluRay.AAC2.0.x264-CTR.[9970E08A].mkv (1001.2 MiB)
    • Kill.la.Kill.S01E07.720p-Hi10p.BluRay.AAC2.0.x264-CTR.[782A399A].mkv (809.5 MiB)
    • Kill.la.Kill.S01E08.720p-Hi10p.BluRay.AAC2.0.x264-CTR.[CBE0C271].mkv (994.2 MiB)
    • Kill.la.Kill.S01E09.720p-Hi10p.BluRay.AAC2.0.x264-CTR.[09891364].mkv (1.0 GiB)
    • Kill.la.Kill.S01E10.720p-Hi10p.BluRay.AAC2.0.x264-CTR.[FBCC3F05].mkv (1.1 GiB)
    • Kill.la.Kill.S01E11.720p-Hi10p.BluRay.AAC2.0.x264-CTR.[5A10C28B].mkv (1003.3 MiB)
    • Kill.la.Kill.S01E12.720p-Hi10p.BluRay.AAC2.0.x264-CTR.[769ACC26].mkv (1.1 GiB)
    • Kill.la.Kill.S01E13.720p-Hi10p.BluRay.AAC2.0.x264-CTR.[71A19ECC].mkv (739.6 MiB)
    • Kill.la.Kill.S01E14.720p-Hi10p.BluRay.AAC2.0.x264-CTR.[5191853D].mkv (918.2 MiB)
    • Kill.la.Kill.S01E15.720p-Hi10p.BluRay.AAC2.0.x264-CTR.[36DCACA0].mkv (971.0 MiB)
    • Kill.la.Kill.S01E16.720p-Hi10p.BluRay.AAC2.0.x264-CTR.[93AAABA9].mkv (747.8 MiB)
    • Kill.la.Kill.S01E17.720p-Hi10p.BluRay.AAC2.0.x264-CTR.[61655F10].mkv (837.1 MiB)
    • Kill.la.Kill.S01E18.720p-Hi10p.BluRay.AAC2.0.x264-CTR.[CC7BF952].mkv (962.2 MiB)
    • Kill.la.Kill.S01E19.720p-Hi10p.BluRay.AAC2.0.x264-CTR.[3D59091E].mkv (843.1 MiB)
    • Kill.la.Kill.S01E20.720p-Hi10p.BluRay.AAC2.0.x264-CTR.[05BE1D5B].mkv (854.6 MiB)
    • Kill.la.Kill.S01E21.720p-Hi10p.BluRay.AAC2.0.x264-CTR.[4387BC2D].mkv (938.7 MiB)
    • Kill.la.Kill.S01E22.720p-Hi10p.BluRay.AAC2.0.x264-CTR.[5561A610].mkv (829.0 MiB)
    • Kill.la.Kill.S01E23.720p-Hi10p.BluRay.AAC2.0.x264-CTR.[91FE9716].mkv (916.5 MiB)
    • Kill.la.Kill.S01E24.720p-Hi10p.BluRay.AAC2.0.x264-CTR.[D8B773A8].mkv (1.0 GiB)