[BDRIP]魔法少女小圆/魔法少女まどか☆マギカTV+劇場版(前編+後編+新編)/Mahou Shoujo|Puella Magi Madoka Magica TV&Movies(Beginnings+Eternal+Rebellion) 全15話+特典+CDx25+Scans(1920x1080 HEVC 10bit FLACx2&DTS-HDMAx4 Sub(chix3+jpn+engx3+kor+fre+spa) c...

Category:
Date:
2016-09-06 02:43 UTC
Submitter:
Seeders:
5
Information:
Leechers:
2
File size:
73.0 GiB
Completed:
885
Info hash:
aecb646e38f309bb6267ef44bfdba8d47475ae2e
One for all, all for one. Please seed as long as possible! [Intro Video](http://anijp.com/player.swf?f=http://anijp.com/v/madoka-magica-op-luminous-colorful-ed-mata-ashita-and-i-m-home.mp4&i=http://ww3.sinaimg.cn/large/005xNimVgw1f7ec9dwoxvj30nk0dcwk7.jpg&p=2) 【DDL&feedback】 <http://anijp.com/thread-284613-1-1.html> 【DDL(Source)】 BDMV(TV): [JP(115G)](http://anijp.com/thread-283641-1-1.html), [ITA(111G](http://anijp.com/thread-285597-1-1.html)), [USA(103G)](http://anijp.com/thread-285598-1-1.html) BDMV(MOVIE): [Zenpen+Kouhen(87G)](http://anijp.com/thread-283677-1-1.html), [Shinpen(93G)](http://anijp.com/thread-283679-1-1.html) ![Image](http://ww2.sinaimg.cn/large/005xNimVgw1f7asz7ujmij30nk0pcao0.jpg) 【INCLUDED】 魔法少女まどか☆マギカ 全12話 +中国語・英語・日本語字幕 劇場版 魔法少女まどか☆マギカ\[前編\] 始まりの物語 全1話 +中国語・英語・日本語・韓国語・フランス語・スペイン語字幕 劇場版 魔法少女まどか☆マギカ\[後編\] 永遠の物語 全1話 +中国語・英語・日本語・韓国語・フランス語・スペイン語字幕 劇場版 魔法少女まどか☆マギカ\[新編\] 叛逆の物語 全1話 +中国語・英語・日本語字幕 関連CD 25枚 <Please retains summary(fansubs) information when reprinting.> 【SUMMARY】 Source:Blu-ray\[JP(TV+TVOP+MOVIE),IT(TVED+TVCM+TVPV),US(TVSUB),TW(TVSUB)\]; Quality:BDRIP; Container:MKV; Video Track:HEVC, 10 bit, 1920x1080, ~5000~10000 Kbps, 23.976 fps; Audio Track 1:japanese - FLAC, ~1500 Kbps, 48000Hz, 2ch, 24bits; Audio Track 2:japanese - FLAC, ~1500 Kbps, 48000Hz, 2ch, 24bits; \[Commentary\] Audio Track 1:japanese - DTS-HDMA, ~2000 Kbps, 48000Hz, 2ch, 24bits; Audio Track 2:japanese - DTS-HDMA, ~4000 Kbps, 48000Hz, 6ch, 24bits; Audio Track 3:japanese - DTS-HDMA, ~2000 Kbps, 48000Hz, 2ch, 24bits; \[HOMURA 1st take ver.\] Audio Track 4:japanese - DTS-HDMA, ~4000 Kbps, 48000Hz, 6ch, 24bits; \[HOMURA 1st take ver.\] Audio Track 5:japanese - DTS, ~250 Kbps, 48000Hz, 2ch, 24bits; \[Commentary\] Subtitles Track 1: Chinese, sup, Internal; \[R3(TV(retimed)),official(MOVIE),Flsnow(Rebellion)\] Subtitles Track 2: English, sup, Internal; \[R1(TV(retimed)),official(MOVIE)\] Subtitles Track 3: Japanese, sup, Internal; \[Kamigami(TV(retimed)),official(MOVIE)\] Subtitles Track 4: English, sup, Internal; \[tri4(TV-Commentary)\] Subtitles Track 4: Korean, sup, Internal; \[official(MOVIE)\] Subtitles Track 5: French, sup, Internal; \[official(MOVIE)\] Subtitles Track 5: Chinese Simplified,, sup, Internal; \[Madoka-Fans(TV)\] Subtitles Track 6: Spanish, sup, Internal; \[official(MOVIE)\] Subtitles Track 6: Chinese Traditional, sup, Internal; \[Madoka-Fans(TV)\] Subtitles Track 7: English, sup, Internal; \[tri4(TV)\] --------------------------------------------------------------- <Recommended HEVC& PGS player> K-Lite Codec Pack Mega built-in MPC-HC, <http://www.codecguide.com> \[PC\] Potplayer, <http://potplayer.daum.net> \[PC\] MX Player, <https://sites.google.com/site/mxvpen> \[Smart PHONE&TV...\] 【PLOT】 <魔法少女まどか☆マギカ> 大好きな家族がいて、親友がいて、時には笑い、時には泣く、そんなどこにでもある日常。 見滝原中学校に通う、普通の中学二年生・鹿目まどかも、そんな日常の中で暮らす一人。 ある日、彼女に不思議な出会いが訪れる。 この出会いは偶然なのか、必然なのか、彼女はまだ知らない。 それは、彼女の運命を変えてしまうような出会い― それは、新たなる魔法少女物語の始まり― <劇場版 魔法少女まどか☆マギカ\[新編\]叛逆の物語> 魔法少女は絶望から救われたのか―― “円環の理"に導かれて、少女たちの新たな物語がはじまる鹿目まどか。 かつて、幸せな日々をおくっていた平凡な一人の少女が、その身を賭してすべての魔法少女たちを残酷な運命の連鎖から解き放った。 まどかへの想いを果たせぬままに取り残された魔法少女・暁美ほむらは、彼女の残した世界でひとり戦い続ける。 「懐かしいあの笑顔と再びめぐり合うことを夢見て―-」 【CAST】 鹿目まどか : 悠木 碧 暁美ほむら : 斎藤千和 美樹さやか : 喜多村英梨 佐倉杏子 : 野中 藍 巴マミ : 水橋かおり 百江なぎさ : 阿澄佳奈 キュゥべえ : 加藤英美里 【FILELIST】 \[EAC\] 劇場版 魔法少女まどか☆マギカ 前編 主題歌「ルミナス」初回生産限定盤 (alac+cue+bk+rr5).rar \[EAC\] 劇場版 魔法少女まどか☆マギカ 前編 主題歌「ルミナス」期間生産限定盤 (wav+cue+bk+rr5).rar \[EAC\] 劇場版 魔法少女まどか☆マギカ 前編・後編 特典CD「オリジナルサウンドトラック」(wav+cue+rr5).rar \[EAC\] 劇場版 魔法少女まどか☆マギカ 後編 主題歌「ひかりふる」初回生産限定盤A (wav+cue+rr5).rar \[EAC\] 劇場版 魔法少女まどか☆マギカ 後編 主題歌「ひかりふる」初回生産限定盤B (alac+cue+bk+rr5).rar \[EAC\] 劇場版 魔法少女まどか☆マギカ 後編 主題歌「ひかりふる」期間生産限定盤 (alac+cue+bk+rr5).rar \[EAC\] 劇場版 魔法少女まどか☆マギカ 新編 EDテーマ「君の銀の庭」アニメ限定盤 (wav+cue+bk+rr5).rar \[EAC\] 劇場版 魔法少女まどか☆マギカ 新編 EDテーマ「君の銀の庭」初回生産限定盤A (wav+cue+bk+rr5).rar \[EAC\] 劇場版 魔法少女まどか☆マギカ 新編 EDテーマ「君の銀の庭」初回生産限定盤B (wav+cue+bk+rr5).rar \[EAC\] 劇場版 魔法少女まどか☆マギカ 新編 OPテーマ「カラフル」アニメ限定盤 (wav+cue+bk+rr5).rar \[EAC\] 劇場版 魔法少女まどか☆マギカ 新編 OPテーマ「カラフル」初回生産限定盤 (wav+cue+bk+rr5).rar \[EAC\] 劇場版 魔法少女まどか☆マギカ 新編 OPテーマ「カラフル」通常盤 (alac+cue+bk+rr5).rar \[EAC\] 劇場版 魔法少女まどか☆マギカ 新編 特典CD「オリジナルサウンドトラック」(wav+cue+rr5).rar \[EAC\] 魔法少女まどか☆マギカ EDテーマ「Magia」初回生產限定盤 (flac+cue+bk+rr5).rar \[EAC\] 魔法少女まどか☆マギカ EDテーマ「Magia」期間生産限定盤 (flac+cue+bk+rr5).rar \[EAC\] 魔法少女まどか☆マギカ MUSIC COLLECTION (2wav+cue+bk+rr5).rar \[EAC\] 魔法少女まどか☆マギカ OPテーマ「コネクト」初回生産限定盤 (wav+cue+bk+rr5).rar \[EAC\] 魔法少女まどか☆マギカ OPテーマ「コネクト」期間生産限定盤 (wav+cue+bk+rr5).rar \[EAC\] 魔法少女まどか☆マギカ 特典CD1「ドラマCD「メモリーズオブユー」/EDキャラソン「また あした(鹿目まどか)」(wav+cue+rr5).rar \[EAC\] 魔法少女まどか☆マギカ 特典CD2「オリジナルサウンドトラックCD Vol.1」(wav+cue+rr5).rar \[EAC\] 魔法少女まどか☆マギカ 特典CD3「ドラマCD「サニーデイライフ」(wav+cue+rr5).rar \[EAC\] 魔法少女まどか☆マギカ 特典CD4「オリジナルサウンドトラックCD Vol.2」(wav+cue+rr5).rar \[EAC\] 魔法少女まどか☆マギカ 特典CD5「ドラマCD「フェアウェル・ストーリー」/EDキャラソン「and I'm home(美樹さやか&佐倉杏子)」(wav+cue+rr5).rar \[EAC\] 魔法少女まどか☆マギカ 特典CD6「オリジナルサウンドトラックCD Vol.3」(wav+cue+rr5).rar \[アニメ BD\] 劇場版 魔法少女まどか☆マギカ 前編 映像特典「TVCM1 15秒Ver.」(1920x1080 HEVC 10bit FLAC).mkv \[アニメ BD\] 劇場版 魔法少女まどか☆マギカ 前編 映像特典「TVCM1 30秒Ver.」(1920x1080 HEVC 10bit FLAC).mkv \[アニメ BD\] 劇場版 魔法少女まどか☆マギカ 前編 映像特典「TVCM2 15秒Ver.」(1920x1080 HEVC 10bit FLAC).mkv \[アニメ BD\] 劇場版 魔法少女まどか☆マギカ 前編 映像特典「TVCM2 30秒Ver.」(1920x1080 HEVC 10bit FLAC).mkv \[アニメ BD\] 劇場版 魔法少女まどか☆マギカ 前編 映像特典「TVCM3 15秒Ver.」(1920x1080 HEVC 10bit FLAC).mkv \[アニメ BD\] 劇場版 魔法少女まどか☆マギカ 前編 映像特典「TVCM3 30秒Ver.」(1920x1080 HEVC 10bit FLAC).mkv \[アニメ BD\] 劇場版 魔法少女まどか☆マギカ 前編 映像特典「TVCM4 15秒Ver.」(1920x1080 HEVC 10bit FLAC).mkv \[アニメ BD\] 劇場版 魔法少女まどか☆マギカ 前編 映像特典「TVCM4 30秒Ver.」(1920x1080 HEVC 10bit FLAC).mkv \[アニメ BD\] 劇場版 魔法少女まどか☆マギカ 前編 映像特典「ノンテロップED「Magia \[quattro\]」(1920x1080 HEVC 10bit FLACx2\[2ch+6ch\]).mkv \[アニメ BD\] 劇場版 魔法少女まどか☆マギカ 前編 映像特典「予告篇」(1920x1080 HEVC 10bit FLAC).mkv \[アニメ BD\] 劇場版 魔法少女まどか☆マギカ 前編「メニュー画面」(1920x1080 HEVC 10bit DTS-HDMAx2\[2ch+6ch\]).mkv \[アニメ BD\] 劇場版 魔法少女まどか☆マギカ 前編「始まりの物語」(1920x1080 HEVC 10bit DTS-HDMAx2\[2ch+6ch\]+DTS softSub(chi+eng+jpn+kor+fre+spa) chap).mkv \[アニメ BD\] 劇場版 魔法少女まどか☆マギカ 前編・後編 Blu-ray Scans.rar \[アニメ BD\] 劇場版 魔法少女まどか☆マギカ 後編 映像特典「TVCM1 15秒Ver.」(1920x1080 HEVC 10bit FLAC).mkv \[アニメ BD\] 劇場版 魔法少女まどか☆マギカ 後編 映像特典「TVCM1 30秒Ver.」(1920x1080 HEVC 10bit FLAC).mkv \[アニメ BD\] 劇場版 魔法少女まどか☆マギカ 後編 映像特典「TVCM2 ①」(1920x1080 HEVC 10bit FLAC).mkv \[アニメ BD\] 劇場版 魔法少女まどか☆マギカ 後編 映像特典「TVCM2 ②」(1920x1080 HEVC 10bit FLAC).mkv \[アニメ BD\] 劇場版 魔法少女まどか☆マギカ 後編 映像特典「TVCM3 15秒Ver.」(1920x1080 HEVC 10bit FLAC).mkv \[アニメ BD\] 劇場版 魔法少女まどか☆マギカ 後編 映像特典「TVCM3 30秒Ver.」(1920x1080 HEVC 10bit FLAC).mkv \[アニメ BD\] 劇場版 魔法少女まどか☆マギカ 後編 映像特典「ノンテロップOP「ルミナス」(1920x1080 HEVC 10bit FLACx2\[2ch+6ch\]).mkv \[アニメ BD\] 劇場版 魔法少女まどか☆マギカ 後編 映像特典「予告篇1」(1920x1080 HEVC 10bit FLAC).mkv \[アニメ BD\] 劇場版 魔法少女まどか☆マギカ 後編 映像特典「予告篇2」(1920x1080 HEVC 10bit FLAC).mkv \[アニメ BD\] 劇場版 魔法少女まどか☆マギカ 後編「メニュー画面」(1920x1080 HEVC 10bit DTS-HDMAx2\[2ch+6ch\]).mkv \[アニメ BD\] 劇場版 魔法少女まどか☆マギカ 後編「永遠の物語」(1920x1080 HEVC 10bit DTS-HDMAx2\[2ch+6ch\]+DTS softSub(chi+eng+jpn+kor+fre+spa) chap).mkv \[アニメ BD\] 劇場版 魔法少女まどか☆マギカ 新編 Blu-ray Scans.rar \[アニメ BD\] 劇場版 魔法少女まどか☆マギカ 新編 映像特典「TVCM1 15秒Ver.」(1920x1080 HEVC 10bit DTS-HDMA).mkv \[アニメ BD\] 劇場版 魔法少女まどか☆マギカ 新編 映像特典「TVCM1 30秒Ver.」(1920x1080 HEVC 10bit DTS-HDMA).mkv \[アニメ BD\] 劇場版 魔法少女まどか☆マギカ 新編 映像特典「TVCM2 15秒Ver.」(1920x1080 HEVC 10bit DTS-HDMA).mkv \[アニメ BD\] 劇場版 魔法少女まどか☆マギカ 新編 映像特典「TVCM2 30秒Ver.」(1920x1080 HEVC 10bit DTS-HDMA).mkv \[アニメ BD\] 劇場版 魔法少女まどか☆マギカ 新編 映像特典「TVCM3 15秒Ver.」(1920x1080 HEVC 10bit DTS-HDMA).mkv \[アニメ BD\] 劇場版 魔法少女まどか☆マギカ 新編 映像特典「TVCM3 30秒Ver.」(1920x1080 HEVC 10bit DTS-HDMA).mkv \[アニメ BD\] 劇場版 魔法少女まどか☆マギカ 新編 映像特典「TVCM4」(1920x1080 HEVC 10bit DTS-HDMA).mkv \[アニメ BD\] 劇場版 魔法少女まどか☆マギカ 新編 映像特典「TVCM5」(1920x1080 HEVC 10bit DTS-HDMA).mkv \[アニメ BD\] 劇場版 魔法少女まどか☆マギカ 新編 映像特典「ノンテロップED「君の銀の庭」(1920x1080 HEVC 10bit FLACx2\[2ch+6ch\]).mkv \[アニメ BD\] 劇場版 魔法少女まどか☆マギカ 新編 映像特典「ノンテロップOP「カラフル」(1920x1080 HEVC 10bit FLACx2\[2ch+6ch\]).mkv \[アニメ BD\] 劇場版 魔法少女まどか☆マギカ 新編 映像特典「予告篇1」(1920x1080 HEVC 10bit DTS-HDMAx2\[2ch+6ch\]).mkv \[アニメ BD\] 劇場版 魔法少女まどか☆マギカ 新編 映像特典「予告篇2」(1920x1080 HEVC 10bit DTS-HDMAx2\[2ch+6ch\]).mkv \[アニメ BD\] 劇場版 魔法少女まどか☆マギカ 新編 映像特典「予告篇3」(1920x1080 HEVC 10bit DTS-HDMAx2\[2ch+6ch\]).mkv \[アニメ BD\] 劇場版 魔法少女まどか☆マギカ 新編 映像特典「予告篇4」(1920x1080 HEVC 10bit DTS-HDMAx2\[2ch+6ch\]).mkv \[アニメ BD\] 劇場版 魔法少女まどか☆マギカ 新編「メニュー画面 1」(1920x1080 HEVC 10bit DTS-HDMAx2\[2ch+6ch\]).mkv \[アニメ BD\] 劇場版 魔法少女まどか☆マギカ 新編「メニュー画面 2」(1920x1080 HEVC 10bit DTS-HDMAx2\[2ch+6ch\]).mkv \[アニメ BD\] 劇場版 魔法少女まどか☆マギカ 新編「叛逆の物語」(1920x1080 HEVC 10bit DTS-HDMAx4\[2ch+6ch(HOMURA 1st take ver.含み)\]+DTS softSub(chi+eng+jpn) chap).mkv \[アニメ BD\] 魔法少女まどか☆マギカ Blu-ray Scans.rar \[アニメ BD\] 魔法少女まどか☆マギカ 映像特典「CM集」(1920x1080 HEVC 10bit DTS-HDMA).mkv \[アニメ BD\] 魔法少女まどか☆マギカ 映像特典「PV集」(1920x1080 HEVC 10bit DTS-HDMA).mkv \[アニメ BD\] 魔法少女まどか☆マギカ 映像特典「ノンテロップED「and I'm home(第9話)」(1920x1080 HEVC 10bit DTS-HDMA).mkv \[アニメ BD\] 魔法少女まどか☆マギカ 映像特典「ノンテロップED「また あした(第1話・第2話)」(1920x1080 HEVC 10bit DTS-HDMA).mkv \[アニメ BD\] 魔法少女まどか☆マギカ 映像特典「ノンテロップOP「コネクト」(1920x1080 HEVC 10bit FLAC).mkv \[アニメ BD\] 魔法少女まどか☆マギカ 第01話「夢の中で逢った、ような」(1920x1080 HEVC 10bit FLACx2 softSub(chix3+engx3+jpn) chap).mkv \[アニメ BD\] 魔法少女まどか☆マギカ 第02話「それはとっても嬉しいなって」(1920x1080 HEVC 10bit FLACx2 softSub(chix3+engx3+jpn) chap).mkv \[アニメ BD\] 魔法少女まどか☆マギカ 第03話「もう何も怖くない」(1920x1080 HEVC 10bit FLACx2 softSub(chix3+engx3+jpn) chap).mkv \[アニメ BD\] 魔法少女まどか☆マギカ 第04話「奇跡も、魔法も、あるんだよ」(1920x1080 HEVC 10bit FLACx2 softSub(chix3+engx3+jpn) chap).mkv \[アニメ BD\] 魔法少女まどか☆マギカ 第05話「後悔なんて、あるわけない」(1920x1080 HEVC 10bit FLACx2 softSub(chix3+engx3+jpn) chap).mkv \[アニメ BD\] 魔法少女まどか☆マギカ 第06話「こんなの絶対おかしいよ」(1920x1080 HEVC 10bit FLACx2 softSub(chix3+engx3+jpn) chap).mkv \[アニメ BD\] 魔法少女まどか☆マギカ 第07話「本当の気持ちと向き合えますか?」(1920x1080 HEVC 10bit FLACx2 softSub(chix3+engx3+jpn) chap).mkv \[アニメ BD\] 魔法少女まどか☆マギカ 第08話「あたしって、ほんとバカ」(1920x1080 HEVC 10bit FLACx2 softSub(chix3+engx3+jpn) chap).mkv \[アニメ BD\] 魔法少女まどか☆マギカ 第09話「そんなの、あたしが許さない」(1920x1080 HEVC 10bit FLACx2 softSub(chix3+engx3+jpn) chap).mkv \[アニメ BD\] 魔法少女まどか☆マギカ 第10話「もう誰にも頼らない」(1920x1080 HEVC 10bit FLACx2 softSub(chix3+engx3+jpn) chap).mkv \[アニメ BD\] 魔法少女まどか☆マギカ 第11話「最後に残った道しるべ」(1920x1080 HEVC 10bit FLACx2 softSub(chix3+engx3+jpn) chap).mkv \[アニメ BD\] 魔法少女まどか☆マギカ 第12話(終)「わたしの、最高のともだち」(1920x1080 HEVC 10bit FLACx2 softSub(chix3+engx3+jpn) chap).mkv \[アニメ BD\] 魔法少女まどか☆マギカ「メニュー画面 1」(1920x1080 HEVC 10bit FLAC).mkv \[アニメ BD\] 魔法少女まどか☆マギカ「メニュー画面 2」(1920x1080 HEVC 10bit FLAC).mkv \[アニメ BD\] 魔法少女まどか☆マギカ「メニュー画面 3」(1920x1080 HEVC 10bit FLAC).mkv \[アニメ BD\] 魔法少女まどか☆マギカ「メニュー画面 4」(1920x1080 HEVC 10bit FLAC).mkv \[アニメ BD\] 魔法少女まどか☆マギカ「メニュー画面 5」(1920x1080 HEVC 10bit FLAC).mkv \[アニメ BD\] 魔法少女まどか☆マギカ「メニュー画面 6」(1920x1080 HEVC 10bit FLAC).mkv 【MEDIAINFO】 General Unique ID : 170935673105356885513968860197288742140 (0x8099035D209534F69AE01AABB2ED0CFC) Complete name : E:\\MADOKA\\\[アニメ BD\] 魔法少女まどか☆マギカTV+劇場版(前編+後編+新編) 全15話+特典+CDx25+Scans(1920x1080 HEVC 10bit FLACx2&DTS-HDMAx4 Sub(chix3+jpn+engx3+kor+fre+spa) chap)\\\[アニメ BD\] 魔法少女まどか☆マギカ 第01話「夢の中で逢った、ような」(1920x1080 HEVC 10bit FLACx2 softSub(chix3+engx3+jpn) chap).mkv Format : Matroska Format version : Version 4 / Version 2 File size : 1.45 GiB Duration : 25 min Overall bit rate mode : Variable Overall bit rate : 8 062 kb/s Encoded date : UTC 2016-09-05 11:15:16 Writing application : mkvmerge v8.2.0 ('World of Adventure') 64bit Writing library : libebml v1.3.1 + libmatroska v1.4.2 Video ID : 1 Format : HEVC Format/Info : High Efficiency Video Coding Format profile : Main [10@L5.1](mailto:10@L5.1)@Main Codec ID : V\_MPEGH/ISO/HEVC Duration : 25 min Bit rate : 4 647 kb/s Width : 1 920 pixels Height : 1 080 pixels Display aspect ratio : 16:9 Frame rate mode : Constant Frame rate : 23.976 (24000/1001) FPS Color space : YUV Chroma subsampling : 4:2:0 Bit depth : 10 bits Bits/(Pixel\*Frame) : 0.093 Stream size : 854 MiB (58%) Writing library : x265 2.0+1:\[Encoded by Alkasa\]\[64 bit\] 10bit Encoding settings : wpp / ctu=64 / min-cu-size=8 / max-tu-size=32 / tu-intra-depth=1 / tu-inter-depth=1 / me=1 / subme=2 / merange=57 / no-rect / no-amp / max-merge=2 / temporal-mvp / no-early-skip / rskip / rdpenalty=0 / no-tskip / no-tskip-fast / strong-intra-smoothing / no-lossless / no-cu-lossless / no-constrained-intra / no-fast-intra / no-open-gop / no-temporal-layers / interlace=0 / keyint=250 / min-keyint=23 / scenecut=40 / rc-lookahead=20 / lookahead-slices=6 / bframes=4 / bframe-bias=0 / b-adapt=2 / ref=3 / limit-refs=3 / no-limit-modes / weightp / no-weightb / aq-mode=2 / qg-size=32 / aq-strength=1.00 / cbqpoffs=0 / crqpoffs=0 / rd=3 / psy-rd=0.00 / rdoq-level=0 / psy-rdoq=0.00 / no-rd-refine / signhide / deblock=0:0 / no-sao / no-sao-non-deblock / b-pyramid / cutree / no-intra-refresh / rc=crf / crf=15.0 / qcomp=0.80 / qpmin=0 / qpmax=51 / qpstep=4 / vbv-maxrate=40000 / vbv-bufsize=40000 / crf-max=0.0 / ipratio=1.40 / pbratio=1.30 Default : Yes Forced : No Color range : Limited Color primaries : BT.709 Transfer characteristics : BT.709 Matrix coefficients : BT.709 Audio [\#1](//www.nyaa.se/?page=view&tid=1) ID : 2 Format : FLAC Format/Info : Free Lossless Audio Codec Codec ID : A\_FLAC Duration : 25 min Bit rate mode : Variable Bit rate : 1 533 kb/s Channel(s) : 2 channels Channel positions : Front: L R Sampling rate : 48.0 kHz Frame rate : 11.719 FPS (4096 spf) Bit depth : 24 bits Stream size : 282 MiB (19%) Writing library : libFLAC 1.3.1 (UTC 2014-11-25) Language : Japanese Default : Yes Forced : No Audio [\#2](//www.nyaa.se/?page=view&tid=2) ID : 3 Format : FLAC Format/Info : Free Lossless Audio Codec Codec ID : A\_FLAC Duration : 25 min Bit rate mode : Variable Bit rate : 1 463 kb/s Channel(s) : 2 channels Channel positions : Front: L R Sampling rate : 48.0 kHz Frame rate : 11.719 FPS (4096 spf) Bit depth : 24 bits Stream size : 269 MiB (18%) Title : Commentary Writing library : libFLAC 1.3.1 (UTC 2014-11-25) Language : Japanese Default : No Forced : No Text [\#1](//www.nyaa.se/?page=view&tid=1) ID : 4 Format : PGS Muxing mode : zlib Codec ID : S\_HDMV/PGS Codec ID/Info : Picture based subtitle format used on BDs/HD-DVDs Duration : 24 min Bit rate : 27.8 kb/s Count of elements : 649 Stream size : 4.81 MiB (0%) Title : 魔法少女小圓【R3】 Language : Chinese Default : Yes Forced : No Text [\#2](//www.nyaa.se/?page=view&tid=2) ID : 5 Format : PGS Muxing mode : zlib Codec ID : S\_HDMV/PGS Codec ID/Info : Picture based subtitle format used on BDs/HD-DVDs Duration : 24 min Bit rate : 63.7 kb/s Count of elements : 1845 Stream size : 11.0 MiB (1%) Title : Puella Magi Madoka Magica【R1】 Language : English Default : No Forced : No Text [\#3](//www.nyaa.se/?page=view&tid=3) ID : 6 Format : PGS Muxing mode : zlib Codec ID : S\_HDMV/PGS Codec ID/Info : Picture based subtitle format used on BDs/HD-DVDs Duration : 24 min Bit rate : 29.8 kb/s Count of elements : 706 Stream size : 5.14 MiB (0%) Title : 魔法少女まどか☆マギカ【Kamigami】 Language : Japanese Default : No Forced : No Text [\#4](//www.nyaa.se/?page=view&tid=4) ID : 7 Format : PGS Muxing mode : zlib Codec ID : S\_HDMV/PGS Codec ID/Info : Picture based subtitle format used on BDs/HD-DVDs Duration : 23 min Bit rate : 75.2 kb/s Count of elements : 1002 Stream size : 12.8 MiB (1%) Title : Commentary【tri4】 Language : English Default : No Forced : No Text [\#5](//www.nyaa.se/?page=view&tid=5) ID : 8 Format : PGS Muxing mode : zlib Codec ID : S\_HDMV/PGS Codec ID/Info : Picture based subtitle format used on BDs/HD-DVDs Duration : 25 min Bit rate : 96.0 kb/s Count of elements : 1219 Stream size : 17.6 MiB (1%) Title : 魔法少女小圆【Madoka-Fans】 Language : Chinese Default : No Forced : No Text [\#6](//www.nyaa.se/?page=view&tid=6) ID : 9 Format : PGS Muxing mode : zlib Codec ID : S\_HDMV/PGS Codec ID/Info : Picture based subtitle format used on BDs/HD-DVDs Duration : 25 min Bit rate : 97.3 kb/s Count of elements : 1219 Stream size : 17.8 MiB (1%) Title : 魔法少女小圓【Madoka-Fans】 Language : Chinese Default : No Forced : No Text [\#7](//www.nyaa.se/?page=view&tid=7) ID : 10 Format : PGS Muxing mode : zlib Codec ID : S\_HDMV/PGS Codec ID/Info : Picture based subtitle format used on BDs/HD-DVDs Duration : 24 min Bit rate : 42.0 kb/s Count of elements : 657 Stream size : 7.26 MiB (0%) Title : Puella Magi Madoka Magica【tri4】 Language : English Default : No Forced : No Menu 00:00:00.000 : en:Prolog 00:02:58.052 : en:Opening 00:04:28.017 : en:Part A 00:07:35.371 : en:Part B 00:10:42.433 : en:Part C 00:13:50.079 : en:Part D 00:14:39.795 : en:Part E 00:16:35.494 : en:Part F 00:17:31.133 : en:Part G 00:19:31.295 : en:Part H 00:23:15.143 : en:Part I 00:23:56.059 : en:Ending 00:25:26.149 : en:Preview -------------------------------------------------------------------------- General Unique ID : 190209330123114786958544704824093915205 (0x8F18FC057A7B25FD81AD5C0E65073845) Complete name : E:\\MADOKA\\\_アニ~1\\\[アニメ BD\] 劇場版 魔法少女まどか☆マギカ 後編「永遠の物語」(1920x1080 HEVC 10bit DTS-HDMAx2\[2ch+6ch\]+DTS softSub(chi+eng+jpn+kor+fre+spa) chap).mkv Format : Matroska Format version : Version 4 / Version 2 File size : 9.79 GiB Duration : 1 h 51 min Overall bit rate : 12.6 Mb/s Encoded date : UTC 2016-08-30 16:36:24 Writing application : mkvmerge v8.2.0 ('World of Adventure') 64bit Writing library : libebml v1.3.1 + libmatroska v1.4.2 Video ID : 1 Format : HEVC Format/Info : High Efficiency Video Coding Format profile : Main [10@L5.1](mailto:10@L5.1)@Main Codec ID : V\_MPEGH/ISO/HEVC Duration : 1 h 51 min Bit rate : 6 070 kb/s Width : 1 920 pixels Height : 1 080 pixels Display aspect ratio : 16:9 Frame rate mode : Constant Frame rate : 23.976 (24000/1001) FPS Color space : YUV Chroma subsampling : 4:2:0 Bit depth : 10 bits Bits/(Pixel\*Frame) : 0.122 Stream size : 4.71 GiB (48%) Writing library : x265 2.0+1:\[Encoded by Alkasa\]\[64 bit\] 10bit Encoding settings : wpp / ctu=64 / min-cu-size=8 / max-tu-size=32 / tu-intra-depth=1 / tu-inter-depth=1 / me=1 / subme=2 / merange=57 / no-rect / no-amp / max-merge=2 / temporal-mvp / no-early-skip / rskip / rdpenalty=0 / no-tskip / no-tskip-fast / strong-intra-smoothing / no-lossless / no-cu-lossless / no-constrained-intra / no-fast-intra / no-open-gop / no-temporal-layers / interlace=0 / keyint=250 / min-keyint=23 / scenecut=40 / rc-lookahead=20 / lookahead-slices=6 / bframes=4 / bframe-bias=0 / b-adapt=2 / ref=3 / limit-refs=3 / no-limit-modes / weightp / no-weightb / aq-mode=2 / qg-size=32 / aq-strength=1.00 / cbqpoffs=0 / crqpoffs=0 / rd=3 / psy-rd=0.00 / rdoq-level=0 / psy-rdoq=0.00 / no-rd-refine / signhide / deblock=0:0 / no-sao / no-sao-non-deblock / b-pyramid / cutree / no-intra-refresh / rc=crf / crf=15.0 / qcomp=0.80 / qpmin=0 / qpmax=51 / qpstep=4 / vbv-maxrate=40000 / vbv-bufsize=40000 / crf-max=0.0 / ipratio=1.40 / pbratio=1.30 Default : Yes Forced : No Color range : Limited Color primaries : BT.709 Transfer characteristics : BT.709 Matrix coefficients : BT.709 Audio [\#1](//www.nyaa.se/?page=view&tid=1) ID : 2 Format : DTS Format/Info : Digital Theater Systems Format profile : MA / Core Mode : 16 Format settings, Endianness : Big Codec ID : A\_DTS Duration : 1 h 51 min Bit rate mode : Variable / Constant Bit rate : 1 756 kb/s / 768 kb/s Channel(s) : 2 channels Channel positions : / Front: L R Sampling rate : 48.0 kHz Frame rate : 93.750 FPS (512 spf) Bit depth : 24 bits Compression mode : Lossless / Lossy Stream size : 1.36 GiB (14%) Language : Japanese Default : Yes Forced : No Audio [\#2](//www.nyaa.se/?page=view&tid=2) ID : 3 Format : DTS Format/Info : Digital Theater Systems Format profile : MA / Core Mode : 16 Format settings, Endianness : Big Codec ID : A\_DTS Duration : 1 h 51 min Bit rate mode : Variable / Constant Bit rate : 4 111 kb/s / 1 509 kb/s Channel(s) : 6 channels Channel positions : Front: L C R, Side: L R, LFE Sampling rate : 48.0 kHz Frame rate : 93.750 FPS (512 spf) Bit depth : 24 bits Compression mode : Lossless / Lossy Stream size : 3.19 GiB (33%) Language : Japanese Default : No Forced : No Audio [\#3](//www.nyaa.se/?page=view&tid=3) ID : 4 Format : DTS Format/Info : Digital Theater Systems Mode : 16 Format settings, Endianness : Big Codec ID : A\_DTS Duration : 1 h 51 min Bit rate mode : Constant Bit rate : 255 kb/s Channel(s) : 2 channels Channel positions : Front: L R Sampling rate : 48.0 kHz Frame rate : 93.750 FPS (512 spf) Bit depth : 24 bits Compression mode : Lossy Stream size : 203 MiB (2%) Title : Commentary Language : Japanese Default : No Forced : No Text [\#1](//www.nyaa.se/?page=view&tid=1) ID : 5 Format : PGS Muxing mode : zlib Codec ID : S\_HDMV/PGS Codec ID/Info : Picture based subtitle format used on BDs/HD-DVDs Duration : 1 h 50 min Bit rate : 64.6 kb/s Count of elements : 7490 Stream size : 50.9 MiB (1%) Language : Chinese Default : Yes Forced : No Text [\#2](//www.nyaa.se/?page=view&tid=2) ID : 6 Format : PGS Muxing mode : zlib Codec ID : S\_HDMV/PGS Codec ID/Info : Picture based subtitle format used on BDs/HD-DVDs Duration : 1 h 50 min Bit rate : 63.3 kb/s Count of elements : 7543 Stream size : 49.9 MiB (0%) Language : English Default : No Forced : No Text [\#3](//www.nyaa.se/?page=view&tid=3) ID : 7 Format : PGS Muxing mode : zlib Codec ID : S\_HDMV/PGS Codec ID/Info : Picture based subtitle format used on BDs/HD-DVDs Duration : 1 h 50 min Bit rate : 106 kb/s Count of elements : 8381 Stream size : 83.8 MiB (1%) Language : Japanese Default : No Forced : No Text [\#4](//www.nyaa.se/?page=view&tid=4) ID : 8 Format : PGS Muxing mode : zlib Codec ID : S\_HDMV/PGS Codec ID/Info : Picture based subtitle format used on BDs/HD-DVDs Duration : 1 h 50 min Bit rate : 53.1 kb/s Count of elements : 7633 Stream size : 41.9 MiB (0%) Language : Korean Default : No Forced : No Text [\#5](//www.nyaa.se/?page=view&tid=5) ID : 9 Format : PGS Muxing mode : zlib Codec ID : S\_HDMV/PGS Codec ID/Info : Picture based subtitle format used on BDs/HD-DVDs Duration : 1 h 50 min Bit rate : 67.2 kb/s Count of elements : 7790 Stream size : 53.0 MiB (1%) Language : French Default : No Forced : No Text [\#6](//www.nyaa.se/?page=view&tid=6) ID : 10 Format : PGS Muxing mode : zlib Codec ID : S\_HDMV/PGS Codec ID/Info : Picture based subtitle format used on BDs/HD-DVDs Duration : 1 h 50 min Bit rate : 67.8 kb/s Count of elements : 7805 Stream size : 53.4 MiB (1%) Language : Spanish Default : No Forced : No Menu 00:00:00.000 : en:Part 1 00:04:09.457 : en:Part 2 00:05:48.556 : en:Part 3 00:08:25.421 : en:Part 4 00:14:16.188 : en:Part 5 00:17:54.531 : en:Part 6 00:27:03.622 : en:Part 7 00:30:02.383 : en:Part 8 00:36:59.008 : en:Part 9 00:40:09.990 : en:Part 10 00:46:52.851 : en:Part 11 00:49:20.540 : en:Part 12 00:54:57.294 : en:Part 13 00:56:29.386 : en:Part 14 00:58:43.686 : en:Part 15 01:05:34.805 : en:Part 16 01:09:23.492 : en:Part 17 01:13:13.180 : en:Part 18 01:17:01.158 : en:Part 19 01:21:54.910 : en:Part 20 01:26:35.815 : en:Part 21 01:32:41.931 : en:Part 22 01:37:14.620 : en:Part 23 01:39:15.032 : en:Part 24 01:41:52.314 : en:Part 25 01:43:26.033 : en:Part 26 01:44:33.016 : en:Part 27 01:49:28.562 : en:Part 28 -------------------------------------------------------------------------- General Unique ID : 203501103533943985994110799953723049195 (0x9918E30BF4C8E4279D568B82E9B2C4EB) Complete name : E:\\MADOKA\\\_アニ~1\\\[アニメ BD\] 劇場版 魔法少女まどか☆マギカ 新編「叛逆の物語」(1920x1080 HEVC 10bit DTS-HDMAx4\[2ch+6ch(HOMURA 1st take ver.含み)\]+DTS softSub(chi+eng+jpn) chap).mkv Format : Matroska Format version : Version 4 / Version 2 File size : 18.7 GiB Duration : 1 h 56 min Overall bit rate : 22.9 Mb/s Encoded date : UTC 2016-08-31 11:09:56 Writing application : mkvmerge v8.2.0 ('World of Adventure') 64bit Writing library : libebml v1.3.1 + libmatroska v1.4.2 Video ID : 1 Format : HEVC Format/Info : High Efficiency Video Coding Format profile : Main [10@L5.1](mailto:10@L5.1)@Main Codec ID : V\_MPEGH/ISO/HEVC Duration : 1 h 56 min Bit rate : 10.8 Mb/s Width : 1 920 pixels Height : 1 080 pixels Display aspect ratio : 16:9 Frame rate mode : Constant Frame rate : 23.976 (24000/1001) FPS Color space : YUV Chroma subsampling : 4:2:0 Bit depth : 10 bits Bits/(Pixel\*Frame) : 0.216 Stream size : 8.77 GiB (47%) Writing library : x265 2.0+1:\[Encoded by Alkasa\]\[64 bit\] 10bit Encoding settings : wpp / ctu=64 / min-cu-size=8 / max-tu-size=32 / tu-intra-depth=1 / tu-inter-depth=1 / me=1 / subme=2 / merange=57 / no-rect / no-amp / max-merge=2 / temporal-mvp / no-early-skip / rskip / rdpenalty=0 / no-tskip / no-tskip-fast / strong-intra-smoothing / no-lossless / no-cu-lossless / no-constrained-intra / no-fast-intra / no-open-gop / no-temporal-layers / interlace=0 / keyint=250 / min-keyint=23 / scenecut=40 / rc-lookahead=20 / lookahead-slices=6 / bframes=4 / bframe-bias=0 / b-adapt=2 / ref=3 / limit-refs=3 / no-limit-modes / weightp / no-weightb / aq-mode=2 / qg-size=32 / aq-strength=1.00 / cbqpoffs=0 / crqpoffs=0 / rd=3 / psy-rd=0.00 / rdoq-level=0 / psy-rdoq=0.00 / no-rd-refine / signhide / deblock=0:0 / no-sao / no-sao-non-deblock / b-pyramid / cutree / no-intra-refresh / rc=crf / crf=15.0 / qcomp=0.80 / qpmin=0 / qpmax=51 / qpstep=4 / vbv-maxrate=40000 / vbv-bufsize=40000 / crf-max=0.0 / ipratio=1.40 / pbratio=1.30 Default : Yes Forced : No Color range : Limited Color primaries : BT.709 Transfer characteristics : BT.709 Matrix coefficients : BT.709 Audio [\#1](//www.nyaa.se/?page=view&tid=1) ID : 2 Format : DTS Format/Info : Digital Theater Systems Format profile : MA / Core Mode : 16 Format settings, Endianness : Big Codec ID : A\_DTS Duration : 1 h 56 min Bit rate mode : Variable / Constant Bit rate : 1 804 kb/s / 768 kb/s Channel(s) : 2 channels Channel positions : Front: L R Sampling rate : 48.0 kHz Frame rate : 93.750 FPS (512 spf) Bit depth : 24 bits Compression mode : Lossless / Lossy Stream size : 1.47 GiB (8%) Language : Japanese Default : Yes Forced : No Audio [\#2](//www.nyaa.se/?page=view&tid=2) ID : 3 Format : DTS Format/Info : Digital Theater Systems Format profile : MA / Core Mode : 16 Format settings, Endianness : Big Codec ID : A\_DTS Duration : 1 h 56 min Bit rate mode : Variable / Constant Bit rate : 4 180 kb/s / 1 509 kb/s Channel(s) : 6 channels Channel positions : Front: L C R, Side: L R, LFE Sampling rate : 48.0 kHz Frame rate : 93.750 FPS (512 spf) Bit depth : 24 bits Compression mode : Lossless / Lossy Stream size : 3.41 GiB (18%) Language : Japanese Default : No Forced : No Audio [\#3](//www.nyaa.se/?page=view&tid=3) ID : 4 Format : DTS Format/Info : Digital Theater Systems Format profile : MA / Core Mode : 16 Format settings, Endianness : Big Codec ID : A\_DTS Duration : 1 h 56 min Bit rate mode : Variable / Constant Bit rate : 1 719 kb/s / 447 kb/s Channel(s) : 2 channels Channel positions : Front: L R Sampling rate : 48.0 kHz Frame rate : 93.750 FPS (512 spf) Bit depth : 24 bits Compression mode : Lossless / Lossy Stream size : 1.40 GiB (7%) Title : HOMURA 1st take ver. Language : Japanese Default : No Forced : No Audio [\#4](//www.nyaa.se/?page=view&tid=4) ID : 5 Format : DTS Format/Info : Digital Theater Systems Format profile : MA / Core Mode : 16 Format settings, Endianness : Big Codec ID : A\_DTS Duration : 1 h 56 min Bit rate mode : Variable / Constant Bit rate : 3 994 kb/s / 768 kb/s Channel(s) : 6 channels Channel positions : Front: L C R, Side: L R, LFE Sampling rate : 48.0 kHz Frame rate : 93.750 FPS (512 spf) Bit depth : 24 bits Compression mode : Lossless / Lossy Stream size : 3.25 GiB (17%) Title : HOMURA 1st take ver. Language : Japanese Default : No Forced : No Audio [\#5](//www.nyaa.se/?page=view&tid=5) ID : 6 Format : DTS Format/Info : Digital Theater Systems Mode : 16 Format settings, Endianness : Big Codec ID : A\_DTS Duration : 1 h 56 min Bit rate mode : Constant Bit rate : 255 kb/s Channel(s) : 2 channels Channel positions : Front: L R Sampling rate : 48.0 kHz Frame rate : 93.750 FPS (512 spf) Bit depth : 24 bits Compression mode : Lossy Stream size : 213 MiB (1%) Title : Commentary Language : Japanese Default : No Forced : No Text [\#1](//www.nyaa.se/?page=view&tid=1) ID : 7 Format : PGS Muxing mode : zlib Codec ID : S\_HDMV/PGS Codec ID/Info : Picture based subtitle format used on BDs/HD-DVDs Duration : 1 h 54 min Bit rate : 54.5 kb/s Count of elements : 3814 Stream size : 44.6 MiB (0%) Language : Chinese Default : Yes Forced : No Text [\#2](//www.nyaa.se/?page=view&tid=2) ID : 8 Format : PGS Muxing mode : zlib Codec ID : S\_HDMV/PGS Codec ID/Info : Picture based subtitle format used on BDs/HD-DVDs Duration : 1 h 56 min Bit rate : 60.8 kb/s Count of elements : 7122 Stream size : 50.5 MiB (0%) Language : English Default : No Forced : No Text [\#3](//www.nyaa.se/?page=view&tid=3) ID : 9 Format : PGS Muxing mode : zlib Codec ID : S\_HDMV/PGS Codec ID/Info : Picture based subtitle format used on BDs/HD-DVDs Duration : 1 h 55 min Bit rate : 86.9 kb/s Count of elements : 7792 Stream size : 71.8 MiB (0%) Language : Japanese Default : No Forced : No Menu 00:00:00.000 : en:Part 1 00:04:42.198 : en:Part 2 00:07:34.662 : en:Part 3 00:09:09.382 : en:Part 4 00:13:28.766 : en:Part 5 00:16:50.009 : en:Part 6 00:21:20.279 : en:Part 7 00:27:49.167 : en:Part 8 00:30:31.412 : en:Part 9 00:33:23.001 : en:Part 10 00:36:27.310 : en:Part 11 00:39:55.393 : en:Part 12 00:41:37.161 : en:Part 13 00:46:03.552 : en:Part 14 00:51:26.958 : en:Part 15 00:54:45.699 : en:Part 16 00:57:24.524 : en:Part 17 01:00:21.117 : en:Part 18 01:02:40.089 : en:Part 19 01:07:35.217 : en:Part 20 01:12:12.828 : en:Part 21 01:18:25.534 : en:Part 22 01:23:50.650 : en:Part 23 01:25:34.128 : en:Part 24 01:31:27.940 : en:Part 25 01:33:33.691 : en:Part 26 01:40:50.043 : en:Part 27 01:44:59.209 : en:Part 28 01:50:05.557 : en:Part 29 01:55:13.197 : en:Part 30

File list

  • [アニメ BD] 魔法少女まどか☆マギカTV+劇場版(前編+後編+新編) 全15話+特典+CDx25+Scans(1920x1080 HEVC 10bit FLACx2&DTS-HDMAx4 Sub(chix3+jpn+engx3+kor+fre+spa) chap)
    • CRC&DDL.txt (15.8 KiB)
    • [EAC] 劇場版 魔法少女まどか☆マギカ 前編 主題歌「ルミナス」初回生産限定盤 (alac+cue+bk+rr5).rar (155.1 MiB)
    • [EAC] 劇場版 魔法少女まどか☆マギカ 前編 主題歌「ルミナス」期間生産限定盤 (wav+cue+bk+rr5).rar (162.7 MiB)
    • [EAC] 劇場版 魔法少女まどか☆マギカ 前編・後編 特典CD「オリジナルサウンドトラック」(wav+cue+rr5).rar (358.7 MiB)
    • [EAC] 劇場版 魔法少女まどか☆マギカ 後編 主題歌「ひかりふる」初回生産限定盤A (wav+cue+rr5).rar (143.0 MiB)
    • [EAC] 劇場版 魔法少女まどか☆マギカ 後編 主題歌「ひかりふる」初回生産限定盤B (alac+cue+bk+rr5).rar (170.1 MiB)
    • [EAC] 劇場版 魔法少女まどか☆マギカ 後編 主題歌「ひかりふる」期間生産限定盤 (alac+cue+bk+rr5).rar (264.2 MiB)
    • [EAC] 劇場版 魔法少女まどか☆マギカ 新編 EDテーマ「君の銀の庭」アニメ限定盤 (wav+cue+bk+rr5).rar (270.3 MiB)
    • [EAC] 劇場版 魔法少女まどか☆マギカ 新編 EDテーマ「君の銀の庭」初回生産限定盤A (wav+cue+bk+rr5).rar (198.7 MiB)
    • [EAC] 劇場版 魔法少女まどか☆マギカ 新編 EDテーマ「君の銀の庭」初回生産限定盤B (wav+cue+bk+rr5).rar (290.9 MiB)
    • [EAC] 劇場版 魔法少女まどか☆マギカ 新編 OPテーマ「カラフル」アニメ限定盤 (wav+cue+bk+rr5).rar (199.6 MiB)
    • [EAC] 劇場版 魔法少女まどか☆マギカ 新編 OPテーマ「カラフル」初回生産限定盤 (wav+cue+bk+rr5).rar (254.1 MiB)
    • [EAC] 劇場版 魔法少女まどか☆マギカ 新編 OPテーマ「カラフル」通常盤 (alac+cue+bk+rr5).rar (184.9 MiB)
    • [EAC] 劇場版 魔法少女まどか☆マギカ 新編 特典CD「オリジナルサウンドトラック」(wav+cue+rr5).rar (451.5 MiB)
    • [EAC] 魔法少女まどか☆マギカ EDテーマ「Magia」初回生產限定盤 (flac+cue+bk+rr5).rar (123.2 MiB)
    • [EAC] 魔法少女まどか☆マギカ EDテーマ「Magia」期間生産限定盤 (flac+cue+bk+rr5).rar (194.0 MiB)
    • [EAC] 魔法少女まどか☆マギカ MUSIC COLLECTION (2wav+cue+bk+rr5).rar (969.3 MiB)
    • [EAC] 魔法少女まどか☆マギカ OPテーマ「コネクト」初回生産限定盤 (wav+cue+bk+rr5).rar (168.4 MiB)
    • [EAC] 魔法少女まどか☆マギカ OPテーマ「コネクト」期間生産限定盤 (wav+cue+bk+rr5).rar (129.6 MiB)
    • [EAC] 魔法少女まどか☆マギカ 特典CD1「ドラマCD「メモリーズオブユー」/EDキャラソン「また あした(鹿目まどか)」(wav+cue+rr5).rar (268.8 MiB)
    • [EAC] 魔法少女まどか☆マギカ 特典CD2「オリジナルサウンドトラックCD Vol.1」(wav+cue+rr5).rar (185.1 MiB)
    • [EAC] 魔法少女まどか☆マギカ 特典CD3「ドラマCD「サニーデイライフ」(wav+cue+rr5).rar (165.9 MiB)
    • [EAC] 魔法少女まどか☆マギカ 特典CD4「オリジナルサウンドトラックCD Vol.2」(wav+cue+rr5).rar (174.5 MiB)
    • [EAC] 魔法少女まどか☆マギカ 特典CD5「ドラマCD「フェアウェル・ストーリー」/EDキャラソン「and I'm home(美樹さやか&佐倉杏子)」(wav+cue+rr5).rar (233.7 MiB)
    • [EAC] 魔法少女まどか☆マギカ 特典CD6「オリジナルサウンドトラックCD Vol.3」(wav+cue+rr5).rar (195.8 MiB)
    • [アニメ BD] 劇場版 魔法少女まどか☆マギカ 前編 映像特典「TVCM1 15秒Ver.」(1920x1080 HEVC 10bit FLAC).mkv (21.3 MiB)
    • [アニメ BD] 劇場版 魔法少女まどか☆マギカ 前編 映像特典「TVCM1 30秒Ver.」(1920x1080 HEVC 10bit FLAC).mkv (34.5 MiB)
    • [アニメ BD] 劇場版 魔法少女まどか☆マギカ 前編 映像特典「TVCM2 15秒Ver.」(1920x1080 HEVC 10bit FLAC).mkv (18.3 MiB)
    • [アニメ BD] 劇場版 魔法少女まどか☆マギカ 前編 映像特典「TVCM2 30秒Ver.」(1920x1080 HEVC 10bit FLAC).mkv (44.5 MiB)
    • [アニメ BD] 劇場版 魔法少女まどか☆マギカ 前編 映像特典「TVCM3 15秒Ver.」(1920x1080 HEVC 10bit FLAC).mkv (19.8 MiB)
    • [アニメ BD] 劇場版 魔法少女まどか☆マギカ 前編 映像特典「TVCM3 30秒Ver.」(1920x1080 HEVC 10bit FLAC).mkv (39.4 MiB)
    • [アニメ BD] 劇場版 魔法少女まどか☆マギカ 前編 映像特典「TVCM4 15秒Ver.」(1920x1080 HEVC 10bit FLAC).mkv (22.7 MiB)
    • [アニメ BD] 劇場版 魔法少女まどか☆マギカ 前編 映像特典「TVCM4 30秒Ver.」(1920x1080 HEVC 10bit FLAC).mkv (38.5 MiB)
    • [アニメ BD] 劇場版 魔法少女まどか☆マギカ 前編 映像特典「ノンテロップED「Magia [quattro]」(1920x1080 HEVC 10bit FLACx2[2ch+6ch]).mkv (483.7 MiB)
    • [アニメ BD] 劇場版 魔法少女まどか☆マギカ 前編 映像特典「予告篇」(1920x1080 HEVC 10bit FLAC).mkv (97.7 MiB)
    • [アニメ BD] 劇場版 魔法少女まどか☆マギカ 前編「メニュー画面」(1920x1080 HEVC 10bit DTS-HDMAx2[2ch+6ch]).mkv (241.7 MiB)
    • [アニメ BD] 劇場版 魔法少女まどか☆マギカ 前編「始まりの物語」(1920x1080 HEVC 10bit DTS-HDMAx2[2ch+6ch]+DTS softSub(chi+eng+jpn+kor+fre+spa) chap).mkv (9.9 GiB)
    • [アニメ BD] 劇場版 魔法少女まどか☆マギカ 前編・後編 Blu-ray Scans.rar (2.3 GiB)
    • [アニメ BD] 劇場版 魔法少女まどか☆マギカ 後編 映像特典「TVCM1 15秒Ver.」(1920x1080 HEVC 10bit FLAC).mkv (22.9 MiB)
    • [アニメ BD] 劇場版 魔法少女まどか☆マギカ 後編 映像特典「TVCM1 30秒Ver.」(1920x1080 HEVC 10bit FLAC).mkv (42.7 MiB)
    • [アニメ BD] 劇場版 魔法少女まどか☆マギカ 後編 映像特典「TVCM2 ①」(1920x1080 HEVC 10bit FLAC).mkv (23.2 MiB)
    • [アニメ BD] 劇場版 魔法少女まどか☆マギカ 後編 映像特典「TVCM2 ②」(1920x1080 HEVC 10bit FLAC).mkv (26.3 MiB)
    • [アニメ BD] 劇場版 魔法少女まどか☆マギカ 後編 映像特典「TVCM3 15秒Ver.」(1920x1080 HEVC 10bit FLAC).mkv (28.2 MiB)
    • [アニメ BD] 劇場版 魔法少女まどか☆マギカ 後編 映像特典「TVCM3 30秒Ver.」(1920x1080 HEVC 10bit FLAC).mkv (43.3 MiB)
    • [アニメ BD] 劇場版 魔法少女まどか☆マギカ 後編 映像特典「ノンテロップOP「ルミナス」(1920x1080 HEVC 10bit FLACx2[2ch+6ch]).mkv (180.7 MiB)
    • [アニメ BD] 劇場版 魔法少女まどか☆マギカ 後編 映像特典「予告篇1」(1920x1080 HEVC 10bit FLAC).mkv (95.5 MiB)
    • [アニメ BD] 劇場版 魔法少女まどか☆マギカ 後編 映像特典「予告篇2」(1920x1080 HEVC 10bit FLAC).mkv (150.0 MiB)
    • [アニメ BD] 劇場版 魔法少女まどか☆マギカ 後編「メニュー画面」(1920x1080 HEVC 10bit DTS-HDMAx2[2ch+6ch]).mkv (141.0 MiB)
    • [アニメ BD] 劇場版 魔法少女まどか☆マギカ 後編「永遠の物語」(1920x1080 HEVC 10bit DTS-HDMAx2[2ch+6ch]+DTS softSub(chi+eng+jpn+kor+fre+spa) chap).mkv (9.8 GiB)
    • [アニメ BD] 劇場版 魔法少女まどか☆マギカ 新編 Blu-ray Scans.rar (968.7 MiB)
    • [アニメ BD] 劇場版 魔法少女まどか☆マギカ 新編 映像特典「TVCM1 15秒Ver.」(1920x1080 HEVC 10bit DTS-HDMA).mkv (23.2 MiB)
    • [アニメ BD] 劇場版 魔法少女まどか☆マギカ 新編 映像特典「TVCM1 30秒Ver.」(1920x1080 HEVC 10bit DTS-HDMA).mkv (44.4 MiB)
    • [アニメ BD] 劇場版 魔法少女まどか☆マギカ 新編 映像特典「TVCM2 15秒Ver.」(1920x1080 HEVC 10bit DTS-HDMA).mkv (28.7 MiB)
    • [アニメ BD] 劇場版 魔法少女まどか☆マギカ 新編 映像特典「TVCM2 30秒Ver.」(1920x1080 HEVC 10bit DTS-HDMA).mkv (51.5 MiB)
    • [アニメ BD] 劇場版 魔法少女まどか☆マギカ 新編 映像特典「TVCM3 15秒Ver.」(1920x1080 HEVC 10bit DTS-HDMA).mkv (27.4 MiB)
    • [アニメ BD] 劇場版 魔法少女まどか☆マギカ 新編 映像特典「TVCM3 30秒Ver.」(1920x1080 HEVC 10bit DTS-HDMA).mkv (48.2 MiB)
    • [アニメ BD] 劇場版 魔法少女まどか☆マギカ 新編 映像特典「TVCM4」(1920x1080 HEVC 10bit DTS-HDMA).mkv (33.1 MiB)
    • [アニメ BD] 劇場版 魔法少女まどか☆マギカ 新編 映像特典「TVCM5」(1920x1080 HEVC 10bit DTS-HDMA).mkv (27.8 MiB)
    • [アニメ BD] 劇場版 魔法少女まどか☆マギカ 新編 映像特典「ノンテロップED「君の銀の庭」(1920x1080 HEVC 10bit FLACx2[2ch+6ch]).mkv (1.4 GiB)
    • [アニメ BD] 劇場版 魔法少女まどか☆マギカ 新編 映像特典「ノンテロップOP「カラフル」(1920x1080 HEVC 10bit FLACx2[2ch+6ch]).mkv (204.8 MiB)
    • [アニメ BD] 劇場版 魔法少女まどか☆マギカ 新編 映像特典「予告篇1」(1920x1080 HEVC 10bit DTS-HDMAx2[2ch+6ch]).mkv (69.1 MiB)
    • [アニメ BD] 劇場版 魔法少女まどか☆マギカ 新編 映像特典「予告篇2」(1920x1080 HEVC 10bit DTS-HDMAx2[2ch+6ch]).mkv (176.6 MiB)
    • [アニメ BD] 劇場版 魔法少女まどか☆マギカ 新編 映像特典「予告篇3」(1920x1080 HEVC 10bit DTS-HDMAx2[2ch+6ch]).mkv (72.8 MiB)
    • [アニメ BD] 劇場版 魔法少女まどか☆マギカ 新編 映像特典「予告篇4」(1920x1080 HEVC 10bit DTS-HDMAx2[2ch+6ch]).mkv (78.3 MiB)
    • [アニメ BD] 劇場版 魔法少女まどか☆マギカ 新編「メニュー画面 1」(1920x1080 HEVC 10bit DTS-HDMAx2[2ch+6ch]).mkv (201.5 MiB)
    • [アニメ BD] 劇場版 魔法少女まどか☆マギカ 新編「メニュー画面 2」(1920x1080 HEVC 10bit DTS-HDMAx2[2ch+6ch]).mkv (145.8 MiB)
    • [アニメ BD] 劇場版 魔法少女まどか☆マギカ 新編「叛逆の物語」(1920x1080 HEVC 10bit DTS-HDMAx4[2ch+6ch(HOMURA 1st take ver.含み)]+DTS softSub(chi+eng+jpn) chap).mkv (18.7 GiB)
    • [アニメ BD] 魔法少女まどか☆マギカ Blu-ray Scans.rar (1.1 GiB)
    • [アニメ BD] 魔法少女まどか☆マギカ 映像特典「CM集」(1920x1080 HEVC 10bit DTS-HDMA).mkv (66.1 MiB)
    • [アニメ BD] 魔法少女まどか☆マギカ 映像特典「PV集」(1920x1080 HEVC 10bit DTS-HDMA).mkv (246.8 MiB)
    • [アニメ BD] 魔法少女まどか☆マギカ 映像特典「ノンテロップED「and I'm home(第9話)」(1920x1080 HEVC 10bit DTS-HDMA).mkv (81.7 MiB)
    • [アニメ BD] 魔法少女まどか☆マギカ 映像特典「ノンテロップED「また あした(第1話・第2話)」(1920x1080 HEVC 10bit DTS-HDMA).mkv (86.3 MiB)
    • [アニメ BD] 魔法少女まどか☆マギカ 映像特典「ノンテロップOP「コネクト」(1920x1080 HEVC 10bit FLAC).mkv (96.1 MiB)
    • [アニメ BD] 魔法少女まどか☆マギカ 第01話「夢の中で逢った、ような」(1920x1080 HEVC 10bit FLACx2 softSub(chix3+engx3+jpn) chap).mkv (1.4 GiB)
    • [アニメ BD] 魔法少女まどか☆マギカ 第02話「それはとっても嬉しいなって」(1920x1080 HEVC 10bit FLACx2 softSub(chix3+engx3+jpn) chap).mkv (1.4 GiB)
    • [アニメ BD] 魔法少女まどか☆マギカ 第03話「もう何も怖くない」(1920x1080 HEVC 10bit FLACx2 softSub(chix3+engx3+jpn) chap).mkv (1.4 GiB)
    • [アニメ BD] 魔法少女まどか☆マギカ 第04話「奇跡も、魔法も、あるんだよ」(1920x1080 HEVC 10bit FLACx2 softSub(chix3+engx3+jpn) chap).mkv (1.5 GiB)
    • [アニメ BD] 魔法少女まどか☆マギカ 第05話「後悔なんて、あるわけない」(1920x1080 HEVC 10bit FLACx2 softSub(chix3+engx3+jpn) chap).mkv (1.5 GiB)
    • [アニメ BD] 魔法少女まどか☆マギカ 第06話「こんなの絶対おかしいよ」(1920x1080 HEVC 10bit FLACx2 softSub(chix3+engx3+jpn) chap).mkv (1.3 GiB)
    • [アニメ BD] 魔法少女まどか☆マギカ 第07話「本当の気持ちと向き合えますか?」(1920x1080 HEVC 10bit FLACx2 softSub(chix3+engx3+jpn) chap).mkv (1.5 GiB)
    • [アニメ BD] 魔法少女まどか☆マギカ 第08話「あたしって、ほんとバカ」(1920x1080 HEVC 10bit FLACx2 softSub(chix3+engx3+jpn) chap).mkv (1.5 GiB)
    • [アニメ BD] 魔法少女まどか☆マギカ 第09話「そんなの、あたしが許さない」(1920x1080 HEVC 10bit FLACx2 softSub(chix3+engx3+jpn) chap).mkv (1.6 GiB)
    • [アニメ BD] 魔法少女まどか☆マギカ 第10話「もう誰にも頼らない」(1920x1080 HEVC 10bit FLACx2 softSub(chix3+engx3+jpn) chap).mkv (1.5 GiB)
    • [アニメ BD] 魔法少女まどか☆マギカ 第11話「最後に残った道しるべ」(1920x1080 HEVC 10bit FLACx2 softSub(chix3+engx3+jpn) chap).mkv (2.1 GiB)
    • [アニメ BD] 魔法少女まどか☆マギカ 第12話(終)「わたしの、最高のともだち」(1920x1080 HEVC 10bit FLACx2 softSub(chix3+engx3+jpn) chap).mkv (1.4 GiB)
    • [アニメ BD] 魔法少女まどか☆マギカ「メニュー画面 1」(1920x1080 HEVC 10bit FLAC).mkv (207.7 MiB)
    • [アニメ BD] 魔法少女まどか☆マギカ「メニュー画面 2」(1920x1080 HEVC 10bit FLAC).mkv (206.3 MiB)
    • [アニメ BD] 魔法少女まどか☆マギカ「メニュー画面 3」(1920x1080 HEVC 10bit FLAC).mkv (206.9 MiB)
    • [アニメ BD] 魔法少女まどか☆マギカ「メニュー画面 4」(1920x1080 HEVC 10bit FLAC).mkv (203.6 MiB)
    • [アニメ BD] 魔法少女まどか☆マギカ「メニュー画面 5」(1920x1080 HEVC 10bit FLAC).mkv (237.6 MiB)
    • [アニメ BD] 魔法少女まどか☆マギカ「メニュー画面 6」(1920x1080 HEVC 10bit FLAC).mkv (286.8 MiB)
This is great source for some more obscure Madoka related content! There is one thing though. Some of the 6 channel audio tracks (I think all except movies), have left surround and sub channels swapped. Easy enough to fix if you have means to utilize a matrix mixer, but I don't see anyone talking about that, so I'm just letting know.
https://ibb.co/MfYvvMV I have a Problem Can´t you help me please?
Does not play the video, says the file does not exist or was removed