Magi S01 The Labyrinth of Magic 1080p-Hi10p BluRay FLAC2.0 x264 [CTR] (English Dubbed Dual Audio)

Category:
Date:
2016-09-03 14:29 UTC
Submitter:
Seeders:
3
File size:
45.1 GiB
Completed:
1090
Info hash:
84a7b56de623e2cc4ee7a31dec5862bb9e002b23
**[Release Thread](http://kametsu.com/topic/55328-megatorrent-ctr-magi-megathread-labyrinth-of-magic-kingdom-of-magic-bd-720p-1080p-10bit-aac-20-flac-20-dual-audio-gotta-archive-em-all/) | [Index](http://kametsu.com/topic/54803-the-ctr-index-your-new-home-for-bloated-1080p-dual-audio-releases/)** Media Details Video Track: 1080p-Hi10p (Yousei-Raws) Audio Track 1 (Default): English 2.0 FLAC (Hark0n) Audio Track 2: Japanese 2.0 FLAC (Yousei-Raws) Subtitle Track 1 (Default): English Signs (.ASS) (gg) Subtitle Track 2: English Dialogue (.ASS) (gg) Subtitle Track 3: English Signs (.PGS) (Kaze UK) Subtitle Track 4: English Dialogue (.PGS) (Kaze UK) Chapters General Unique ID : 203814284676818712779611238790508292198 (0x99553411B6CC10A4870ECCEEA17BA866) Complete name : S:\\Anime\\Magi\\Season 1\\Magi.S01E01.The.Labyrinth.of.Magic.1080p-Hi10p.BluRay.FLAC2.0.x264-CTR.\[AEA295C4\].mkv Format : Matroska Format version : Version 4 / Version 2 File size : 1.70 GiB Duration : 24 min Overall bit rate mode : Variable Overall bit rate : 9 952 kb/s Movie name : 1 - Aladdin and Alibaba Encoded date : UTC 2016-09-01 16:20:12 Writing application : mkvmerge v9.4.0 ('Knurl') 64bit Writing library : libebml v1.3.4 + libmatroska v1.4.5 Attachments : Comfortaa.ttf / Bakuman Shinn Medium.ttf / Bakuman Shinn Medium Italic.ttf / Dupree.ttf / avocado.ttf / FOT-HummingStd-v999.ttf / SPEAKOT-HEAVY.OTF / HammersmithOne.ttf / Ruluko-Regular.ttf / Scrogglet.ttf / Fansub Block.TTF / Comfortaa-Bold.ttf / FADREI5.TTF / fansubBlock.ttf Video ID : 1 Format : AVC Format/Info : Advanced Video Codec Format profile : High 10@L4.1 Format settings, CABAC : Yes Format settings, ReFrames : 4 frames Codec ID : V\_MPEG4/ISO/AVC Duration : 24 min Bit rate : 7 760 kb/s Width : 1 920 pixels Height : 1 080 pixels Display aspect ratio : 16:9 Frame rate mode : Constant Frame rate : 23.976 (24000/1001) FPS Color space : YUV Chroma subsampling : 4:2:0 Bit depth : 10 bits Scan type : Progressive Bits/(Pixel\*Frame) : 0.156 Stream size : 1.33 GiB (78%) Title : Yousei-Raws Writing library : x264 core 128 r2216 198a7ea Encoding settings : cabac=1 / ref=4 / deblock=1:-2:-2 / analyse=0x3:0x133 / me=umh / subme=9 / psy=1 / psy\_rd=0.90:0.00 / mixed\_ref=1 / me\_range=24 / chroma\_me=1 / trellis=2 / 8x8dct=1 / cqm=0 / deadzone=21,11 / fast\_pskip=1 / chroma\_qp\_offset=-2 / threads=12 / lookahead\_threads=2 / sliced\_threads=0 / nr=0 / decimate=0 / interlaced=0 / bluray\_compat=0 / constrained\_intra=0 / bframes=12 / b\_pyramid=2 / b\_adapt=2 / b\_bias=0 / direct=3 / weightb=1 / open\_gop=0 / weightp=2 / keyint=250 / keyint\_min=23 / scenecut=40 / intra\_refresh=0 / rc=crf / mbtree=0 / crf=16.5 / qcomp=0.80 / qpmin=0 / qpmax=81 / qpstep=4 / ip\_ratio=1.40 / pb\_ratio=1.30 / aq=1:0.70 Language : Japanese Default : Yes Forced : No Audio [\#1](//www.nyaa.se/?page=view&tid=1) ID : 2 Format : FLAC Format/Info : Free Lossless Audio Codec Codec ID : A\_FLAC Duration : 24 min Bit rate mode : Variable Bit rate : 678 kb/s Channel(s) : 2 channels Channel positions : Front: L R Sampling rate : 48.0 kHz Frame rate : 11.719 FPS (4096 spf) Bit depth : 16 bits Delay relative to video : 1 s 1 ms Stream size : 118 MiB (7%) Title : FLAC 2.0 \[Hark0n\] Writing library : libFLAC 1.2.1 (UTC 2007-09-17) Language : English Default : Yes Forced : No Audio [\#2](//www.nyaa.se/?page=view&tid=2) ID : 3 Format : FLAC Format/Info : Free Lossless Audio Codec Codec ID : A\_FLAC Duration : 24 min Bit rate mode : Variable Bit rate : 1 475 kb/s Channel(s) : 2 channels Sampling rate : 48.0 kHz Frame rate : 11.719 FPS (4096 spf) Bit depth : 24 bits Stream size : 258 MiB (15%) Title : FLAC 2.0 \[Yousei\] Writing library : libFLAC 1.2.1 (UTC 2007-09-17) Language : Japanese Default : No Forced : No Text [\#1](//www.nyaa.se/?page=view&tid=1) ID : 4 Format : ASS Codec ID : S\_TEXT/ASS Codec ID/Info : Advanced Sub Station Alpha Duration : 22 min Bit rate : 13 b/s Count of elements : 42 Compression mode : Lossless Stream size : 2.20 KiB (0%) Title : Signs \[gg\] Language : English Default : Yes Forced : No Text [\#2](//www.nyaa.se/?page=view&tid=2) ID : 5 Format : ASS Codec ID : S\_TEXT/ASS Codec ID/Info : Advanced Sub Station Alpha Duration : 23 min Bit rate : 100 b/s Count of elements : 341 Compression mode : Lossless Stream size : 17.7 KiB (0%) Title : Subtitles \[gg\] Language : Japanese Default : No Forced : No Text [\#3](//www.nyaa.se/?page=view&tid=3) ID : 6 Format : PGS Muxing mode : zlib Codec ID : S\_HDMV/PGS Codec ID/Info : Picture based subtitle format used on BDs/HD-DVDs Duration : 21 min Bit rate : 64 b/s Count of elements : 4 Stream size : 10.1 KiB (0%) Title : Signs \[Kaze UK\] Language : English Default : No Forced : No Text [\#4](//www.nyaa.se/?page=view&tid=4) ID : 7 Format : PGS Muxing mode : zlib Codec ID : S\_HDMV/PGS Codec ID/Info : Picture based subtitle format used on BDs/HD-DVDs Duration : 23 min Bit rate : 9 609 b/s Count of elements : 660 Stream size : 1.64 MiB (0%) Title : Subtitles \[Kaze UK\] Language : English Default : No Forced : No Menu 00:00:00.000 : en:Prologue 00:01:33.969 : en:Opening 00:03:03.934 : en:Episode 00:22:33.478 : en:Ending 00:24:12.995 : en:Preview

File list

  • Magi.S01.The.Labyrinth.of.Magic.1080p-Hi10p.BluRay.FLAC2.0.x264-CTR
    • Magi.S01E01.The.Labyrinth.of.Magic.1080p-Hi10p.BluRay.FLAC2.0.x264-CTR.[AEA295C4].mkv (1.7 GiB)
    • Magi.S01E02.The.Labyrinth.of.Magic.1080p-Hi10p.BluRay.FLAC2.0.x264-CTR.[43ECED28].mkv (1.9 GiB)
    • Magi.S01E03.The.Labyrinth.of.Magic.1080p-Hi10p.BluRay.FLAC2.0.x264-CTR.[1E1FCFC0].mkv (1.7 GiB)
    • Magi.S01E04.The.Labyrinth.of.Magic.1080p-Hi10p.BluRay.FLAC2.0.x264-CTR.[FC1A5E56].mkv (1.7 GiB)
    • Magi.S01E05.The.Labyrinth.of.Magic.1080p-Hi10p.BluRay.FLAC2.0.x264-CTR.[5594EA45].mkv (1.7 GiB)
    • Magi.S01E06.The.Labyrinth.of.Magic.1080p-Hi10p.BluRay.FLAC2.0.x264-CTR.[9386338A].mkv (1.8 GiB)
    • Magi.S01E07.The.Labyrinth.of.Magic.1080p-Hi10p.BluRay.FLAC2.0.x264-CTR.[7B6CB7B9].mkv (1.6 GiB)
    • Magi.S01E08.The.Labyrinth.of.Magic.1080p-Hi10p.BluRay.FLAC2.0.x264-CTR.[17FA62C3].mkv (1.5 GiB)
    • Magi.S01E09.The.Labyrinth.of.Magic.1080p-Hi10p.BluRay.FLAC2.0.x264-CTR.[DBA8B0B2].mkv (1.7 GiB)
    • Magi.S01E10.The.Labyrinth.of.Magic.1080p-Hi10p.BluRay.FLAC2.0.x264-CTR.[96C3EC5D].mkv (1.8 GiB)
    • Magi.S01E11.The.Labyrinth.of.Magic.1080p-Hi10p.BluRay.FLAC2.0.x264-CTR.[19555DD4].mkv (1.6 GiB)
    • Magi.S01E12.The.Labyrinth.of.Magic.1080p-Hi10p.BluRay.FLAC2.0.x264-CTR.[C647308C].mkv (1.6 GiB)
    • Magi.S01E13.The.Labyrinth.of.Magic.1080p-Hi10p.BluRay.FLAC2.0.x264-CTR.[003D7869].mkv (1.7 GiB)
    • Magi.S01E14.The.Labyrinth.of.Magic.1080p-Hi10p.BluRay.FLAC2.0.x264-CTR.[6EF80242].mkv (1.7 GiB)
    • Magi.S01E15.The.Labyrinth.of.Magic.1080p-Hi10p.BluRay.FLAC2.0.x264-CTR.[CD5C58A8].mkv (2.2 GiB)
    • Magi.S01E16.The.Labyrinth.of.Magic.1080p-Hi10p.BluRay.FLAC2.0.x264-CTR.[41DB22E9].mkv (2.0 GiB)
    • Magi.S01E17.The.Labyrinth.of.Magic.1080p-Hi10p.BluRay.FLAC2.0.x264-CTR.[100193C4].mkv (2.3 GiB)
    • Magi.S01E18.The.Labyrinth.of.Magic.1080p-Hi10p.BluRay.FLAC2.0.x264-CTR.[11654D54].mkv (1.8 GiB)
    • Magi.S01E19.The.Labyrinth.of.Magic.1080p-Hi10p.BluRay.FLAC2.0.x264-CTR.[E34B41FA].mkv (1.7 GiB)
    • Magi.S01E20.The.Labyrinth.of.Magic.1080p-Hi10p.BluRay.FLAC2.0.x264-CTR.[78805ECE].mkv (1.8 GiB)
    • Magi.S01E21.The.Labyrinth.of.Magic.1080p-Hi10p.BluRay.FLAC2.0.x264-CTR.[A51D8346].mkv (1.9 GiB)
    • Magi.S01E22.The.Labyrinth.of.Magic.1080p-Hi10p.BluRay.FLAC2.0.x264-CTR.[F0B3246A].mkv (2.0 GiB)
    • Magi.S01E23.The.Labyrinth.of.Magic.1080p-Hi10p.BluRay.FLAC2.0.x264-CTR.[20F8B001].mkv (1.9 GiB)
    • Magi.S01E24.The.Labyrinth.of.Magic.1080p-Hi10p.BluRay.FLAC2.0.x264-CTR.[E1F94381].mkv (2.1 GiB)
    • Magi.S01E25.The.Labyrinth.of.Magic.1080p-Hi10p.BluRay.FLAC2.0.x264-CTR.[FF0E4994].mkv (1.9 GiB)
Every single episode has an audio desync issue of a second or two (dub). Recommend avoiding and downloading something else.
@Catar could you verify the english audio desync issues please? I really wanna DL this release.
@dealvidit There is no sync issue. ChandraArgentis is just spreading falsehoods.

D44

User
It's either dubbed or dual audio, it's meaningless to state both.
Thanks. Anyway [gg] subs have a slightly too big of a vertical margin at dialogue for my taste, so for those interested [here's with a smaller margin](https://kitsunekko.net/subtitles/Magi:%20The%20Labyrinth%20of%20Magic%20(2012)/[CTR]%20Magi%20The%20Labyrinth%20of%20Magic.7z)
Thanks 😊😊😊
Episode 12 could use a v2. The sub timing is way off.