Magi S02 The Kingdom of Magic 1080p-Hi10p BluRay FLAC2.0 x264 [CTR] (English Dubbed Dual Audio)

Category:
Date:
2016-08-31 22:38 UTC
Submitter:
Seeders:
4
File size:
33.3 GiB
Completed:
911
Info hash:
87749f0d0a8be823ff57acb276b68b1280023b34
**[Release Thread](http://kametsu.com/topic/55328-megatorrent-ctr-magi-s02-the-kingdom-of-magic-bd-720p-1080p-10bit-aac-20-flac-20-dual-audio-hows-everyone-doing-tonight-ctrs-doing-good/) | [Index](http://kametsu.com/topic/54803-the-ctr-index-your-new-home-for-bloated-1080p-dual-audio-releases/)** Media Details Video Track: 1080p-Hi10p (SallySubs) Audio Track 1 (Default): English 2.0 FLAC (Etzimal) Audio Track 2: Japanese 2.0 FLAC (SallySubs) Subtitle Track 1 (Default): English Signs (.ASS) (SallySubs) Subtitle Track 2: English Dialogue (.ASS) (SallySubs) Subtitle Track 3: English Signs (.PGS) (Animax) Subtitle Track 4: English Dialogue (.PGS) (Animax) Chapters General Unique ID : 218073805009979495816715183677140106739 (0xA40F7CB39A445AD3A890F3FB0237FDF3) Complete name : S:\\Anime\\Magi\\Season 2\\Magi.S02E01.The.Kingdom.of.Magic.1080p-Hi10p.BluRay.FLAC2.0.x264-CTR.\[BA3575F3\].mkv Format : Matroska Format version : Version 4 / Version 2 File size : 1.29 GiB Duration : 24 min Overall bit rate mode : Variable Overall bit rate : 7 523 kb/s Movie name : \[SallySubs\] Magi Kingdom of Magic - 01 Encoded date : UTC 2016-08-31 01:05:17 Writing application : mkvmerge v9.4.0 ('Knurl') 64bit Writing library : libebml v1.3.4 + libmatroska v1.4.5 Attachments : kaiu.ttf / wt071.ttf / clearfag.ttf / Comfortaa-Regular.ttf / DFHsr4.ttc / Howie\_s\_Funhouse.ttf / ClearfaceGothic\_Regular.ttf / Rosario-Bold.ttf / Rosario-BoldItalic.otf / Rosario-Italic.otf / Rosario-Regular.otf / Rosario-Bold.otf Video ID : 1 Format : AVC Format/Info : Advanced Video Codec Format profile : High 10@L5.1 Format settings, CABAC : Yes Format settings, ReFrames : 10 frames Codec ID : V\_MPEG4/ISO/AVC Duration : 24 min Bit rate : 5 881 kb/s Width : 1 920 pixels Height : 1 080 pixels Display aspect ratio : 16:9 Frame rate mode : Constant Frame rate : 23.976 (24000/1001) FPS Color space : YUV Chroma subsampling : 4:2:0 Bit depth : 10 bits Scan type : Progressive Bits/(Pixel\*Frame) : 0.118 Stream size : 1.01 GiB (78%) Title : SallySubs Writing library : x264 core 133 r2334 a3ac64b Encoding settings : cabac=1 / ref=10 / deblock=1:1:-2 / analyse=0x3:0x133 / me=umh / subme=10 / psy=1 / psy\_rd=1.00:0.00 / mixed\_ref=1 / me\_range=24 / chroma\_me=1 / trellis=2 / 8x8dct=1 / cqm=0 / deadzone=21,11 / fast\_pskip=0 / chroma\_qp\_offset=-2 / threads=6 / lookahead\_threads=1 / sliced\_threads=0 / nr=0 / decimate=1 / interlaced=0 / bluray\_compat=0 / constrained\_intra=0 / bframes=8 / b\_pyramid=2 / b\_adapt=2 / b\_bias=0 / direct=3 / weightb=1 / open\_gop=0 / weightp=2 / keyint=250 / keyint\_min=25 / scenecut=40 / intra\_refresh=0 / rc\_lookahead=60 / rc=crf / mbtree=1 / crf=15.0 / qcomp=0.60 / qpmin=0 / qpmax=69 / qpstep=4 / vbv\_maxrate=300000 / vbv\_bufsize=300000 / crf\_max=0.0 / nal\_hrd=none / ip\_ratio=1.40 / aq=1:1.00 Language : Japanese Default : Yes Forced : No Color range : Limited Color primaries : BT.709 Transfer characteristics : BT.709 Matrix coefficients : BT.709 Audio [\#1](//www.nyaa.se/?page=view&tid=1) ID : 2 Format : FLAC Format/Info : Free Lossless Audio Codec Codec ID : A\_FLAC Duration : 24 min Bit rate mode : Variable Bit rate : 696 kb/s Channel(s) : 2 channels Sampling rate : 48.0 kHz Frame rate : 11.719 FPS (4096 spf) Bit depth : 16 bits Delay relative to video : 1 s 0 ms Stream size : 122 MiB (9%) Title : FLAC 2.0 \[Etzimal\] Writing library : libFLAC 1.2.1 (UTC 2007-09-17) Language : English Default : Yes Forced : No Audio [\#2](//www.nyaa.se/?page=view&tid=2) ID : 3 Format : FLAC Format/Info : Free Lossless Audio Codec Codec ID : A\_FLAC Duration : 24 min Bit rate mode : Variable Bit rate : 729 kb/s Channel(s) : 2 channels Channel positions : Front: L R Sampling rate : 48.0 kHz Frame rate : 11.719 FPS (4096 spf) Bit depth : 16 bits Stream size : 128 MiB (10%) Title : FLAC 2.0 \[SallySubs\] Writing library : libFLAC 1.3.0 (UTC 2013-05-26) Language : Japanese Default : No Forced : No Text [\#1](//www.nyaa.se/?page=view&tid=1) ID : 4 Format : ASS Codec ID : S\_TEXT/ASS Codec ID/Info : Advanced Sub Station Alpha Duration : 22 min Bit rate : 47.2 kb/s Count of elements : 36928 Compression mode : Lossless Stream size : 7.64 MiB (1%) Title : Signs \[SallySubs\] Language : English Default : Yes Forced : No Text [\#2](//www.nyaa.se/?page=view&tid=2) ID : 5 Format : ASS Codec ID : S\_TEXT/ASS Codec ID/Info : Advanced Sub Station Alpha Duration : 23 min Bit rate : 45.4 kb/s Count of elements : 37235 Compression mode : Lossless Stream size : 7.66 MiB (1%) Title : Subtitles \[SallySubs\] Language : Japanese Default : No Forced : No Text [\#3](//www.nyaa.se/?page=view&tid=3) ID : 6 Format : PGS Muxing mode : zlib Codec ID : S\_HDMV/PGS Codec ID/Info : Picture based subtitle format used on BDs/HD-DVDs Duration : 21 min Bit rate : 67 b/s Count of elements : 4 Stream size : 10.5 KiB (0%) Title : Signs \[Aniplex\] Language : English Default : No Forced : No Text [\#4](//www.nyaa.se/?page=view&tid=4) ID : 7 Format : PGS Muxing mode : zlib Codec ID : S\_HDMV/PGS Codec ID/Info : Picture based subtitle format used on BDs/HD-DVDs Duration : 23 min Bit rate : 9 588 b/s Count of elements : 624 Stream size : 1.61 MiB (0%) Title : Subtitles \[Aniplex\] Language : Japanese Default : No Forced : No Menu 00:00:00.000 : en:Prologue 00:01:39.975 : en:Intro 00:03:09.940 : en:Part A 00:22:27.471 : en:Ending 00:23:57.478 : en:Preview

File list

  • Magi.S02.The.Kingdom.of.Magic.1080p-Hi10p.BluRay.FLAC2.0.x264-CTR
    • Magi.S02E01.The.Kingdom.of.Magic.1080p-Hi10p.BluRay.FLAC2.0.x264-CTR.[BA3575F3].mkv (1.3 GiB)
    • Magi.S02E02.The.Kingdom.of.Magic.1080p-Hi10p.BluRay.FLAC2.0.x264-CTR.[C8922DA9].mkv (1.2 GiB)
    • Magi.S02E03.The.Kingdom.of.Magic.1080p-Hi10p.BluRay.FLAC2.0.x264-CTR.[1B31AFB8].mkv (1.1 GiB)
    • Magi.S02E04.The.Kingdom.of.Magic.1080p-Hi10p.BluRay.FLAC2.0.x264-CTR.[D188C1FE].mkv (1.2 GiB)
    • Magi.S02E05.The.Kingdom.of.Magic.1080p-Hi10p.BluRay.FLAC2.0.x264-CTR.[6FE9E6CA].mkv (1.5 GiB)
    • Magi.S02E06.The.Kingdom.of.Magic.1080p-Hi10p.BluRay.FLAC2.0.x264-CTR.[98FB36C9].mkv (1.6 GiB)
    • Magi.S02E07.The.Kingdom.of.Magic.1080p-Hi10p.BluRay.FLAC2.0.x264-CTR.[24235B1B].mkv (1.3 GiB)
    • Magi.S02E08.The.Kingdom.of.Magic.1080p-Hi10p.BluRay.FLAC2.0.x264-CTR.[DF87B7D6].mkv (1.1 GiB)
    • Magi.S02E09.The.Kingdom.of.Magic.1080p-Hi10p.BluRay.FLAC2.0.x264-CTR.[72DE9CA7].mkv (1.2 GiB)
    • Magi.S02E10.The.Kingdom.of.Magic.1080p-Hi10p.BluRay.FLAC2.0.x264-CTR.[6E4B363F].mkv (1.2 GiB)
    • Magi.S02E11.The.Kingdom.of.Magic.1080p-Hi10p.BluRay.FLAC2.0.x264-CTR.[BD2A92B2].mkv (1.2 GiB)
    • Magi.S02E12.The.Kingdom.of.Magic.1080p-Hi10p.BluRay.FLAC2.0.x264-CTR.[AF4CE18B].mkv (1.3 GiB)
    • Magi.S02E13.The.Kingdom.of.Magic.1080p-Hi10p.BluRay.FLAC2.0.x264-CTR.[5D1168B4].mkv (1.5 GiB)
    • Magi.S02E14.The.Kingdom.of.Magic.1080p-Hi10p.BluRay.FLAC2.0.x264-CTR.[32BEAFB4].mkv (1.2 GiB)
    • Magi.S02E15.The.Kingdom.of.Magic.1080p-Hi10p.BluRay.FLAC2.0.x264-CTR.[0DAE7506].mkv (1.6 GiB)
    • Magi.S02E16.The.Kingdom.of.Magic.1080p-Hi10p.BluRay.FLAC2.0.x264-CTR.[5EF0ECDB].mkv (1.1 GiB)
    • Magi.S02E17.The.Kingdom.of.Magic.1080p-Hi10p.BluRay.FLAC2.0.x264-CTR.[CDDF1D05].mkv (1.2 GiB)
    • Magi.S02E18.The.Kingdom.of.Magic.1080p-Hi10p.BluRay.FLAC2.0.x264-CTR.[1E4773C9].mkv (1.4 GiB)
    • Magi.S02E19.The.Kingdom.of.Magic.1080p-Hi10p.BluRay.FLAC2.0.x264-CTR.[67D455C9].mkv (1.6 GiB)
    • Magi.S02E20.The.Kingdom.of.Magic.1080p-Hi10p.BluRay.FLAC2.0.x264-CTR.[AA018EC6].mkv (1.2 GiB)
    • Magi.S02E21.The.Kingdom.of.Magic.1080p-Hi10p.BluRay.FLAC2.0.x264-CTR.[1DD95673].mkv (1.5 GiB)
    • Magi.S02E22.The.Kingdom.of.Magic.1080p-Hi10p.BluRay.FLAC2.0.x264-CTR.[E3E7B3C7].mkv (1.4 GiB)
    • Magi.S02E23.The.Kingdom.of.Magic.1080p-Hi10p.BluRay.FLAC2.0.x264-CTR.[521690F8].mkv (1.5 GiB)
    • Magi.S02E24.The.Kingdom.of.Magic.1080p-Hi10p.BluRay.FLAC2.0.x264-CTR.[F839B436].mkv (1.6 GiB)
    • Magi.S02E25.The.Kingdom.of.Magic.1080p-Hi10p.BluRay.FLAC2.0.x264-CTR.[90EED1E1].mkv (1.2 GiB)