[Anime Land] Street Fighter II - The Movie (Dual Audio) (BDRip 720p Hi10P QAACx2) [9392FBFF].mkv

Category:
Date:
2016-08-22 11:39 UTC
Submitter:
Seeders:
0
Information:
Leechers:
0
File size:
5.6 GiB
Completed:
174
Info hash:
be8da4a1d5c72551761f74ba1ebcb54fa1b512db
![Image](http://www.an-land.net/up/do.php?img=5100) **please tell me if there is any error, thank you!** ~.~.~.~.~.~.~.~.~.~.~.~.~.~.~.~.~.~.~.~ Source: BD25 BDMV Provider: Omar Video: H264 Hi10P 720p Audio: QAAC CBR 320 Kbps Stereo (Japanese & English) Subtitle: PGS Official English Sub Encoder: Omar Server & Upload: MegaMan Info: [MAL](http://myanimelist.net/anime/1362/Street_Fighter_II__The_Movie) - [IMDB](http://www.imdb.com/title/tt0114563/) ~.~.~.~.~.~.~.~.~.~.~.~.~.~.~.~.~.~.~.~ ![Image](http://www.an-land.net/up/do.php?img=5101) ![Image](http://www.an-land.net/up/do.php?img=5102) ![Image](http://www.an-land.net/up/do.php?img=5103) ![Image](http://www.an-land.net/up/do.php?img=5104) ![Image](http://www.an-land.net/up/do.php?img=5105) ~.~.~.~.~.~.~.~.~.~.~.~.~.~.~.~.~.~.~.~ General Unique ID : 207199971472630130734910959800173818392 (0x9BE14350EC340D1E94A901FE51FD7218) Complete name : D:\\BD\\Street Fighter Movie\\Encode\\\[Anime Land\] Street Fighter II - The Movie (Dual Audio) (BDRip 720p Hi10P QAACx2) \[9392FBFF\].mkv Format : Matroska Format version : Version 4 / Version 2 File size : 5.56 GiB Duration : 1h 41mn Overall bit rate : 7 843 Kbps Encoded date : UTC 2016-08-22 16:08:47 Writing application : mkvmerge v8.2.0 ('World of Adventure') 32bit Writing library : libebml v1.3.1 + libmatroska v1.4.2 Video ID : 1 Format : AVC Format/Info : Advanced Video Codec Format profile : High 10@L5 Format settings, CABAC : Yes Format settings, ReFrames : 16 frames Codec ID : V\_MPEG4/ISO/AVC Duration : 1h 41mn Bit rate : 7 195 Kbps Width : 1 280 pixels Height : 690 pixels Display aspect ratio : 1.85:1 Frame rate mode : Constant Frame rate : 23.976 (24000/1001) fps Color space : YUV Chroma subsampling : 4:2:0 Bit depth : 10 bits Scan type : Progressive Bits/(Pixel\*Frame) : 0.340 Stream size : 5.10 GiB (92%) Title : H264 Hi10P 720p By Omar Writing library : x264 core 133 r2334 a3ac64b Encoding settings : cabac=1 / ref=16 / deblock=1:-2:-2 / analyse=0x3:0x133 / me=umh / subme=10 / psy=1 / psy\_rd=1.00:0.15 / mixed\_ref=1 / me\_range=24 / chroma\_me=1 / trellis=2 / 8x8dct=1 / cqm=0 / deadzone=21,11 / fast\_pskip=0 / chroma\_qp\_offset=-3 / threads=18 / lookahead\_threads=4 / sliced\_threads=0 / nr=0 / decimate=1 / interlaced=0 / bluray\_compat=0 / constrained\_intra=0 / bframes=16 / b\_pyramid=2 / b\_adapt=2 / b\_bias=0 / direct=3 / weightb=1 / open\_gop=0 / weightp=2 / keyint=250 / keyint\_min=23 / scenecut=40 / intra\_refresh=0 / rc\_lookahead=60 / rc=crf / mbtree=1 / crf=17.0 / qcomp=0.80 / qpmin=0 / qpmax=81 / qpstep=4 / ip\_ratio=1.40 / aq=1:1.00 Language : Japanese Default : Yes Forced : No Audio [\#1](//www.nyaa.se/?page=view&tid=1) ID : 2 Format : AAC Format/Info : Advanced Audio Codec Format profile : LC Codec ID : A\_AAC Duration : 1h 41mn Bit rate : 320 Kbps Channel(s) : 2 channels Channel positions : Front: L R Sampling rate : 48.0 KHz Frame rate : 46.875 fps (1024 spf) Compression mode : Lossy Delay relative to video : 20ms Stream size : 232 MiB (4%) Title : QAAC CBR 320 Kbps Stereo By Omar Language : Japanese Default : Yes Forced : No Audio [\#2](//www.nyaa.se/?page=view&tid=2) ID : 3 Format : AAC Format/Info : Advanced Audio Codec Format profile : LC Codec ID : A\_AAC Duration : 1h 41mn Bit rate : 320 Kbps Channel(s) : 2 channels Channel positions : Front: L R Sampling rate : 48.0 KHz Frame rate : 46.875 fps (1024 spf) Compression mode : Lossy Delay relative to video : 20ms Stream size : 232 MiB (4%) Title : QAAC CBR 320 Kbps Stereo By Omar Language : English Default : No Forced : No Text [\#1](//www.nyaa.se/?page=view&tid=1) ID : 4 Format : PGS Muxing mode : zlib Codec ID : S\_HDMV/PGS Codec ID/Info : Picture based subtitle format used on BDs/HD-DVDs Duration : 1h 35mn Bit rate : 311 bps Count of elements : 66 Stream size : 218 KiB (0%) Title : PGS Official English Sub Signs & Songs Language : English Default : Yes Forced : No Text [\#2](//www.nyaa.se/?page=view&tid=2) ID : 5 Format : PGS Muxing mode : zlib Codec ID : S\_HDMV/PGS Codec ID/Info : Picture based subtitle format used on BDs/HD-DVDs Duration : 1h 35mn Bit rate : 4 844 bps Count of elements : 1292 Stream size : 3.32 MiB (0%) Title : PGS Official English Sub Main Subtitles Language : English Default : No Forced : No

File list

  • [Anime Land] Street Fighter II - The Movie (Dual Audio) (BDRip 720p Hi10P QAACx2) [9392FBFF].mkv (5.6 GiB)