NieA under 7 ニア アンダーセブン NieA_7 (BDRemux)

Category:
Date:
2016-07-27 07:57 UTC
Submitter:
Seeders:
1
Information:
Leechers:
0
File size:
69.4 GiB
Completed:
11
Info hash:
3c880499dd10369f16ac50ba4edbad0377e78365
NieA under 7 / ニア アンダーセブン / NieA under 7 - domestic poor @nimation / NieA\_7 **Video**: MPEG-4 AVC, High Profile 4.1, 8 bits, ~30000 kbps, 1920x1080, MBAFF (Interleaved fields), 29.970 fps, 16:9 **Audio**: LPCM Audio, 2.0, 48 kHz, 1536 kbps, 16-bit **Language:** Japanese **Sub 1**: srt (ext.) **Language:** Russian ; **Translator:** Agenda **Sub 2**: srt (ext.) **Language:** Russian ; **Translator:** Frolov BDinfo Disc 1 & 2: QUICK SUMMARY: Disc Title: NIEA\_7\_BD\_1 Disc Size: 42,770,911,333 bytes Protection: AACS BD-Java: No Playlist: 00000.MPLS Size: 42,214,152,192 bytes Length: 2:44:17.848 Total Bitrate: 34.26 Mbps Video: MPEG-4 AVC Video / 30989 kbps / 1080i / 29.970 fps / 16:9 / High Profile 4.1 Audio: Japanese / LPCM Audio / 2.0 / 48 kHz / 1536 kbps / 16-bit QUICK SUMMARY: Disc Title: NIEA\_7\_BD\_2 Disc Size: 36,733,856,985 bytes Protection: AACS BD-Java: No Playlist: 00000.MPLS Size: 34,602,584,064 bytes Length: 2:20:25.183 Total Bitrate: 32.86 Mbps Video: MPEG-4 AVC Video / 29646 kbps / 1080i / 29.970 fps / 16:9 / High Profile 4.1 Audio: Japanese / LPCM Audio / 2.0 / 48 kHz / 1536 kbps / 16-bit MediaInfo: General Unique ID : 221389433054092183449677797648801041817 (0xA68E0DC90BF37C1CB9DE71609D258D99) Complete name : NieA Under 7 \[BDMV\]\_\[2000\_BDRemux\_JPN\]\_\[RuTracker\]\\NieA\_7\_01.mkv Format : Matroska Format version : Version 4 / Version 2 File size : 5.47 GiB Duration : 23mn 27s Overall bit rate mode : Variable Overall bit rate : 33.4 Mbps Encoded date : UTC 2016-06-07 08:01:59 Writing application : mkvmerge v8.9.0 ('Father Daughter') 64bit Writing library : libebml v1.3.3 + libmatroska v1.4.4 Video ID : 1 Format : AVC Format/Info : Advanced Video Codec Format profile : High@L4.1 Format settings, CABAC : Yes Format settings, ReFrames : 4 frames Codec ID : V\_MPEG4/ISO/AVC Duration : 23mn 27s Bit rate mode : Variable Bit rate : 31.9 Mbps Maximum bit rate : 39.0 Mbps Width : 1 920 pixels Height : 1 080 pixels Display aspect ratio : 16:9 Frame rate mode : Constant Frame rate : 29.970 (30000/1001) fps Color space : YUV Chroma subsampling : 4:2:0 Bit depth : 8 bits Scan type : MBAFF Scan type, store method : Interleaved fields Scan order : Top Field First Bits/(Pixel\*Frame) : 0.513 Stream size : 5.22 GiB (95%) Language : Japanese Default : Yes Forced : No Audio ID : 2 Format : PCM Format settings, Endianness : Big Codec ID : A\_PCM/INT/BIG Duration : 23mn 27s Bit rate mode : Constant Bit rate : 1 536 Kbps Channel(s) : 2 channels Sampling rate : 48.0 KHz Frame rate : 200.000 fps (240 spf) Bit depth : 16 bits Stream size : 258 MiB (5%) Title : PCM 2.0 (48/16) Language : Japanese Default : Yes Forced : No Episodes: 1. Alien and Launching UFO Bath / Uchūjin to uchiage yūfō no yu / 宇宙人と、打ち上げUFOの湯 2. Alien and Violence Cosmic Bath / Uchūjin to abare uchū buro no yu / 宇宙人と、暴れ宇宙風呂の湯 3. Alien and Radio Noise Bath / Uchūjin to redio noizu no yu / 宇宙人と、レディオノイズの湯 4. Alien and a Beginner Waitress Bath / Uchūjin to sin'mai weitoresu no yu / 宇宙人と、新米ウェイトレスの湯 5. Alien and Dried Up Amusements Bath / Uchūjin to gekikare amūzumento no yu / 宇宙人と、激枯アミューズメントの湯 6. Alien and Rival Hot Spring Bath / Uchūjin to raibaru sentō no yu / 宇宙人と、ライバル銭湯の湯 7. Mothership, Go-Con & Cloudy Skies Bath / Bosen to gōkon to kumorizora no yu 7 / 母船と合コンと曇り空の湯 8. Melancholy and Cast Off Summer Bath / Yūutsu to natsu no nukegara no yu / ゆーうつと、夏のぬけがらの湯 9. Close Encounter and After the Rain Bath / Sekkin sōgū to ameagari no yu / 接近遭遇と、雨あがりの湯 10. Glow of the Firefly and Nocturne Bath / Hotarubi to yasōkyoku no yu / 蛍火と、夜想曲の湯 11. NieA Under Seven Bath (The Former Part) / Nia andā sebun no yu (Zenpen) / にあ・あんだーせぶんの湯(前篇) 12. NieA Under Seven Bath (The Latter Part) / Nia andā sebun no yu (Kōhen) / にあ・あんだーせぶんの湯(後編) 13. Time Flows By In Enohana Bath / Enohana ni toki wa nagareru no yu / 荏の花に、時は流れるの湯

File list

  • NieA Under 7 [BDMV]_[2000_BDRemux_JPN]_[RuTracker]
    • Bonus
      • BD_menu_disc_1.mkv (119.1 MiB)
      • BD_menu_disc_2.mkv (119.1 MiB)
      • NCED.mkv (296.2 MiB)
      • NCOP.mkv (303.0 MiB)
      • Special_1.mkv (139.1 MiB)
      • Special_2.mkv (200.4 MiB)
      • Special_3.mkv (478.1 MiB)
      • Universal_logo.mkv (102.1 MiB)
    • Subs
      • by Agenda
        • NieA_7_01.Agenda.srt (32.0 KiB)
        • NieA_7_02.Agenda.srt (29.1 KiB)
        • NieA_7_03.Agenda.srt (27.6 KiB)
        • NieA_7_04.Agenda.srt (30.4 KiB)
        • NieA_7_05.Agenda.srt (33.0 KiB)
        • NieA_7_06.Agenda.srt (38.6 KiB)
        • NieA_7_07.Agenda.srt (28.0 KiB)
        • NieA_7_08.Agenda.srt (22.4 KiB)
        • NieA_7_09.Agenda.srt (19.6 KiB)
        • NieA_7_10.Agenda.srt (23.1 KiB)
        • NieA_7_11.Agenda.srt (18.6 KiB)
        • NieA_7_12.Agenda.srt (19.8 KiB)
        • NieA_7_13.Agenda.srt (30.7 KiB)
      • by Frolov
        • NieA_7_01.Frolov.srt (32.4 KiB)
        • NieA_7_02.Frolov.srt (28.5 KiB)
        • NieA_7_03.Frolov.srt (28.7 KiB)
        • NieA_7_04.Frolov.srt (31.5 KiB)
        • NieA_7_05.Frolov.srt (34.6 KiB)
        • NieA_7_06.Frolov.srt (40.8 KiB)
        • NieA_7_07.Frolov.srt (29.3 KiB)
        • NieA_7_08.Frolov.srt (24.2 KiB)
        • NieA_7_09.Frolov.srt (20.6 KiB)
        • NieA_7_10.Frolov.srt (24.0 KiB)
        • NieA_7_11.Frolov.srt (19.6 KiB)
        • NieA_7_12.Frolov.srt (18.2 KiB)
        • NieA_7_13.Frolov.srt (32.2 KiB)
    • NieA_7_01.mkv (5.5 GiB)
    • NieA_7_02.mkv (4.3 GiB)
    • NieA_7_03.mkv (5.5 GiB)
    • NieA_7_04.mkv (5.5 GiB)
    • NieA_7_05.mkv (5.5 GiB)
    • NieA_7_06.mkv (5.5 GiB)
    • NieA_7_07.mkv (5.5 GiB)
    • NieA_7_08.mkv (4.3 GiB)
    • NieA_7_09.mkv (5.5 GiB)
    • NieA_7_10.mkv (4.3 GiB)
    • NieA_7_11.mkv (5.4 GiB)
    • NieA_7_12.mkv (5.5 GiB)
    • NieA_7_13.mkv (5.4 GiB)