[TéConPastas] Tengen Toppa Gurren Lagann + Extras + Movies (SPA/ENG BD 1080p FLAC/DTS-HD) v2

Category:
Date:
2016-07-25 19:49 UTC
Submitter:
Seeders:
1
Information:
Leechers:
1
File size:
68.2 GiB
Completed:
43
Info hash:
51ddbfb9d10e2585f8e7922369035b8e7e1af843
![Image](http://2.bp.blogspot.com/--Dk1keQKq7s/Vm-IswU9j9I/AAAAAAAAGns/_8uNCnkQBKI/s1600/%255BT%25C3%25A9ConPastas%255D%2BTengen%2BToppa%2BGurren%2BLagann%2B%2528BD%2B1080p%2529.mkv%2BJapon%25C3%25A9s-VOSE-TTGL.jpg) **Sinopsis:** La humanidad es obligada a vivir bajo la superficie pasando asi muchos siglos, llegando a olvidarse y convirtiendo en una leyenda la vida en la superficie. Asi se crean pequeñas colonias excavando por distintos lugares y tratando de escapar de los terribles terremotos. En una de esas colonias vive Simon, uno de los mejores excavadores, que en unos de los agujeros encuentra una extraña llave en forma de torno. Si bien todos se mofan de Simon por ser muy raro y de poca autoestima, el único que lo respalda siempre es Kamina quien lo invita a ir hacia la superficie. Por supuesto el Jefe de la colonia prohibe esta acción que se supone que es tabú para la gente y encierra a Kamina. En una excavación nocturna, Simon encuentra esta vez un mecha en forma de cara y corre hacia Kamina para mostrárselo, pero de repente un enorme robot con forma de cara cae desde la superficie y al igual una misteriosa chica que lo ataca con su rifle. Simon, Kamina y la chica (Yoko) tratan de escapar y Simon los conduce a su descubrimiento, ahi le dice a Kamina que lo maneje para derrotar al robot sin embargo, Kamina le responde que esa mecha le pertenece y por lo tanto él debería manejarlo... entre idas y vueltas los 3 entran en la cabeza y ante un impulso de Kamina junto con la ayuda de Yoko, Simon logra de algún modo derrotar a la enorme cara; no solo eso sino que son explusado hacia la superficie...Alli Simon y Kamina descubre un maraviloso mundo para ellos pero también se encuentra con la sorpresa de que en la superficie un grupo de Ganmen (Mechas con forma de cara) que atacan a los humanos que suben a la superficie **Fansub:** [TéConPastas](http://hastebin.com/ujiposahad.avrasm) **Capítulos:** 27 **Género:** Acción, Comedia, Mecha, Sci-Fi **Video:** BD (16:9) 1080p MKV **Audio:** **FLAC** Japonés @ 2304kbps **Subs:** **ASS** Español Castizo **ASS** Inglés [![Image](http://1.bp.blogspot.com/-OW9qFZwdRKs/Vm-ItwJRc6I/AAAAAAAAGn0/EvZxFlxpoMg/s1600/%255BT%25C3%25A9ConPastas%255D%2BTengen%2BToppa%2BGurren%2BLagann%2B%2528BD%2B1080p%2529.mkv%2BJapon%25C3%25A9s-VOSE-TTGL-mediainfo.png)](http://1.bp.blogspot.com/-OW9qFZwdRKs/Vm-ItwJRc6I/AAAAAAAAGn0/EvZxFlxpoMg/s1600/%255BT%25C3%25A9ConPastas%255D%2BTengen%2BToppa%2BGurren%2BLagann%2B%2528BD%2B1080p%2529.mkv%2BJapon%25C3%25A9s-VOSE-TTGL-mediainfo.png) **Mediainfo "corto":** `<br></br><b>Video:</b> MPEG4 Video (H264) 1920x1080 23.976fps [V: TTGL 01 [jpn] (h264 high L5.0, yuv420p, 1920x1080) [default]]<br></br><b>Audio:</b> FLAC (framed) 48000Hz stereo 2304kbps [A: Japanese [jpn] (flac, 48000 Hz, stereo, s24) [default]]<br></br><b>Subtitle:</b> Advanced SubStation Alpha [S: Español Castizo [spa] (ass) [default]]<br></br><b>Subtitle:</b> Advanced SubStation Alpha [S: English [eng] (ass)]<br></br><b>Subtitle:</b> UTF-8 [S: No subtitles]<br></br>` **Mediainfo "largo":** `<br></br><b>General</b><br></br>Unique ID : 184265080357621109973859316538178595621 (0x8AA029E176EDE5C6A7582956C5F4EB25)<br></br>Complete name : T:\[TéConPastas] Tengen Toppa Gurren Lagann + Extras + Movies (BD 1080p FLAC DTS-HD)\[TéConPastas] Tengen Toppa Gurren Lagann 01 - Perfora el cielo con tu taladro (BD 1080p).mkv<br></br>Format : Matroska<br></br>Format version : Version 4 / Version 2<br></br>File size : 1.39 GiB<br></br>Duration : 25mn 51s<br></br>Overall bit rate mode : Variable<br></br>Overall bit rate : 7 681 Kbps<br></br>Encoded date : UTC 2015-10-23 17:23:01<br></br>Writing application : mkvmerge v8.4.0 ('A better way to fly') 64bit<br></br>Writing library : libebml v1.3.1 + libmatroska v1.4.2<br></br><br></br><b>Video</b><br></br>ID : 1<br></br>Format : AVC<br></br>Format/Info : Advanced Video Codec<br></br>Format profile : High@L5<br></br>Format settings, CABAC : Yes<br></br>Format settings, ReFrames : 5 frames<br></br>Codec ID : V_MPEG4/ISO/AVC<br></br>Duration : 25mn 51s<br></br>Bit rate : 6 173 Kbps<br></br>Width : 1 920 pixels<br></br>Height : 1 080 pixels<br></br>Display aspect ratio : 16:9<br></br>Frame rate mode : Constant<br></br>Frame rate : 23.976 (24000/1001) fps<br></br>Color space : YUV<br></br>Chroma subsampling : 4:2:0<br></br>Bit depth : 8 bits<br></br>Scan type : Progressive<br></br>Bits/(Pixel*Frame) : 0.124<br></br>Stream size : 1.11 GiB (80%)<br></br>Title : TTGL 01<br></br>Writing library : x264 core 148 r2597 e86f3a1<br></br>Encoding settings : cabac=1 / ref=5 / deblock=1:1:1 / analyse=0x3:0x113 / me=umh / subme=9 / psy=1 / psy_rd=0.70:0.00 / mixed_ref=1 / me_range=32 / chroma_me=1 / trellis=0 / 8x8dct=1 / cqm=0 / deadzone=21,11 / fast_pskip=0 / chroma_qp_offset=-2 / threads=6 / lookahead_threads=1 / sliced_threads=0 / nr=0 / decimate=1 / interlaced=0 / bluray_compat=0 / constrained_intra=0 / bframes=1 / b_pyramid=0 / b_adapt=2 / b_bias=0 / direct=1 / weightb=1 / open_gop=0 / weightp=2 / keyint=240 / keyint_min=23 / scenecut=40 / intra_refresh=0 / rc_lookahead=40 / rc=crf / mbtree=1 / crf=16.0 / qcomp=0.70 / qpmin=0 / qpmax=69 / qpstep=4 / ip_ratio=1.40 / aq=1:1.00<br></br>Language : Japanese<br></br>Default : Yes<br></br>Forced : No<br></br><br></br><b>Audio</b><br></br>ID : 2<br></br>Format : FLAC<br></br>Format/Info : Free Lossless Audio Codec<br></br>Codec ID : A_FLAC<br></br>Duration : 25mn 51s<br></br>Bit rate mode : Variable<br></br>Bit rate : 1 506 Kbps<br></br>Channel(s) : 2 channels<br></br>Channel positions : Front: L R<br></br>Sampling rate : 48.0 KHz<br></br>Frame rate : 11.719 fps (4096 spf)<br></br>Bit depth : 24 bits<br></br>Stream size : 279 MiB (20%)<br></br>Title : Japanese<br></br>Writing library : libFLAC 1.3.1 (UTC 2014-11-25)<br></br>Language : Japanese<br></br>Default : Yes<br></br>Forced : No<br></br><br></br><b>Text <a href="//www.nyaa.se/?page=view&tid=1" rel="nofollow">#1</a></b><br></br>ID : 3<br></br>Format : ASS<br></br>Codec ID : S_TEXT/ASS<br></br>Codec ID/Info : Advanced Sub Station Alpha<br></br>Duration : 25mn 34s<br></br>Bit rate : 101 bps<br></br>Count of elements : 374<br></br>Compression mode : Lossless<br></br>Stream size : 18.9 KiB (0%)<br></br>Title : Español Castizo<br></br>Language : Spanish<br></br>Default : Yes<br></br>Forced : No<br></br><br></br><b>Text <a href="//www.nyaa.se/?page=view&tid=2" rel="nofollow">#2</a></b><br></br>ID : 4<br></br>Format : ASS<br></br>Codec ID : S_TEXT/ASS<br></br>Codec ID/Info : Advanced Sub Station Alpha<br></br>Duration : 25mn 39s<br></br>Bit rate : 109 bps<br></br>Count of elements : 373<br></br>Compression mode : Lossless<br></br>Stream size : 20.5 KiB (0%)<br></br>Title : English<br></br>Language : English<br></br>Default : No<br></br>Forced : No<br></br><br></br><b>Menu</b><br></br>00:00:00.000 : es:Opening<br></br>00:01:30.000 : es:Prólogo<br></br>00:02:53.010 : es:Parte 1<br></br>00:11:59.060 : es:Parte 2<br></br>00:24:05.050 : es:Ending<br></br>00:25:35.000 : es:Epílogo<br></br>` **[Release realizada por Té Con Pastas](http://anime-teconpastas.blogspot.com.es/2015/10/tengen-toppa-gurren-lagann.html)** Resubid dónde queráis sin preguntar :D Aunque agradeceríamos que si lo hacéis nos dierais créditos

File list

  • [TéConPastas] Tengen Toppa Gurren Lagann + Extras + Movies (BD 1080p FLAC DTS-HD)
    • Extra
      • [TéConPastas] Tengen Toppa Gurren Lagann Kirameki★Yoko Box - Pieces of Sweet Stars (BD 1080 FLAC).mkv (416.8 MiB)
      • [TéConPastas] Tengen Toppa Gurren Lagann Parallel Works - 01v2 (BD 1080 FLAC).mkv (2.9 GiB)
      • [TéConPastas] Tengen Toppa Gurren Lagann Parallel Works - 02 (BD 1080 FLAC).mkv (4.6 GiB)
    • Movies
      • [TéconPastas] Tengen Toppa Gurren Lagann - Movie 01 - 「 Gurren-hen 」(BD 1080 Dual).mkv (7.9 GiB)
      • [TéconPastas] Tengen Toppa Gurren Lagann - Movie 02 - 「 Lagann-hen 」(BD 1080 Dual).mkv (11.7 GiB)
    • Créditos.txt (1.0 KiB)
    • [TéConPastas] Tengen Toppa Gurren Lagann 01 - Perfora el cielo con tu taladro (BD 1080p).mkv (1.4 GiB)
    • [TéConPastas] Tengen Toppa Gurren Lagann 02 - ¡He dicho que yo lo pilotaré! (BD 1080p).mkv (1.3 GiB)
    • [TéConPastas] Tengen Toppa Gurren Lagann 03 - ¡No me seas chulo con dos caras! (BD 1080p).mkv (1.3 GiB)
    • [TéConPastas] Tengen Toppa Gurren Lagann 04 - ¡¿Tener más caras mola más‽ (BD 1080p).mkv (1.3 GiB)
    • [TéConPastas] Tengen Toppa Gurren Lagann 05 - ¡No lo entiendo en absoluto! (BD 1080p).mkv (1.1 GiB)
    • [TéConPastas] Tengen Toppa Gurren Lagann 06 - ¡¡Quiero ver lo que se ve!! (BD 1080p).mkv (1.3 GiB)
    • [TéConPastas] Tengen Toppa Gurren Lagann 07 - ¡Esto es lo que debes hacer! (BD 1080p).mkv (1.4 GiB)
    • [TéConPastas] Tengen Toppa Gurren Lagann 08 - Nos vemos, chicos (BD 1080p).mkv (1.4 GiB)
    • [TéConPastas] Tengen Toppa Gurren Lagann 09 - ¿Qué es una persona? (BD 1080p).mkv (1.1 GiB)
    • [TéConPastas] Tengen Toppa Gurren Lagann 10 - ¿Quién era tu hermano? (BD 1080p).mkv (1.2 GiB)
    • [TéConPastas] Tengen Toppa Gurren Lagann 11 - Simon, aparta las manos (BD 1080p).mkv (1.3 GiB)
    • [TéConPastas] Tengen Toppa Gurren Lagann 12 - Yoko-san, necesito un favor (BD 1080p).mkv (1.4 GiB)
    • [TéConPastas] Tengen Toppa Gurren Lagann 13 - ¡Chicos! ¡Hora de comer! (BD 1080p).mkv (1.4 GiB)
    • [TéConPastas] Tengen Toppa Gurren Lagann 14 - ¡Saludos, chicos! (BD 1080p).mkv (1.8 GiB)
    • [TéConPastas] Tengen Toppa Gurren Lagann 15 - Nos volveremos a ver algún día (BD 1080p).mkv (1.5 GiB)
    • [TéConPastas] Tengen Toppa Gurren Lagann 16 - Recopilación (BD 1080p).mkv (1.8 GiB)
    • [TéConPastas] Tengen Toppa Gurren Lagann 17 - No entiendes nada (BD 1080p).mkv (1.3 GiB)
    • [TéConPastas] Tengen Toppa Gurren Lagann 18 - Haré que me cuentes los secretos del mundo (BD 1080p).mkv (1.4 GiB)
    • [TéConPastas] Tengen Toppa Gurren Lagann 19 - Sobreviviremos sin importar cómo (BD 1080p).mkv (1.5 GiB)
    • [TéConPastas] Tengen Toppa Gurren Lagann 20 - Dios nos pondrá a prueba hasta el final (BD 1080p).mkv (1.5 GiB)
    • [TéConPastas] Tengen Toppa Gurren Lagann 21 - Tú eres alguien que debe vivir (BD 1080p).mkv (1.6 GiB)
    • [TéConPastas] Tengen Toppa Gurren Lagann 22 - Ese es mi último deber (BD 1080p).mkv (1.8 GiB)
    • [TéConPastas] Tengen Toppa Gurren Lagann 23 - ¡Adelante! ¡Es la batalla final! (BD 1080p).mkv (1.5 GiB)
    • [TéConPastas] Tengen Toppa Gurren Lagann 24 - ¿Cómo podría olvidar este momento?(BD 1080p).mkv (2.3 GiB)
    • [TéConPastas] Tengen Toppa Gurren Lagann 25 - ¡Acepto tu última voluntad! (BD 1080p).mkv (1.8 GiB)
    • [TéConPastas] Tengen Toppa Gurren Lagann 26 - ¡Adelante, amigos! (BD 1080p).mkv (1.9 GiB)
    • [TéConPastas] Tengen Toppa Gurren Lagann 27 - Todas las luces del cielo son estrellas (BD 1080p).mkv (2.3 GiB)
Me encanta cuando los latinos podemos hacer tambien post