[tenshi] Chika Gentou Gekiga - Shoujo Tsubaki [544p][C35BD191].mp4

Category:
Date:
2016-03-05 18:06 UTC
Submitter:
Seeders:
10
Information:
irc://irc.rizon.net/tenshi
Leechers:
179
File size:
594.0 MiB
Completed:
1276
Info hash:
a9889181f70a0b8e3d7057ca36cba47306510f2e
**Tenshi Fansubs presents:** _Chika Gentou Gekiga: Shoujo Tsubaki_ ![Image](http://i.imgur.com/JyTWeTf.jpg) After losing her parents, young flower selling Midori is put up by a fairground group. She is abused and forced to slavery, until the arrival of an enigmatic magician of short stature, who gives her hope for a better future. Banned in Japan for many years, it finally received a DVD release in France in 2006. However, Howard Bonsor's translation (from this DVD release) that has circulated online for many years is a questionable one. It has received a fresh TLC by KU, modern typesetting by Tom\_Servo, and a brand new karaoke translation that gives this film the most definitive release in the past decade. Sourced from a 544p rip of the 2006 French DVD, we have made a few tweaks to the video in order to match community standards that did not exist in 2006. The source .mkv file, courtesy of an anonymous cinemaggedon.net user, was IVTC'd from 25 fps (PAL) to 23.976 (NTSC), passed through a deblocking filter, and finally compressed from the original 8 GB file down to ~500 MB for release. To make sure that all copies of our translation use the exact same fonts that we picked, this release is hardsubbed. Future releases from this group will be softsubbed, but we kept this release hardsubbed as this is a rare film that we do not want to see butchered by streaming websites using the wrong fonts when converting .mkv files to their respective formats for streaming. **MediaInfo:** General Complete name : D:\\\[tenshi\]\\Releases\\Final\\\[tenshi\] Chika Gentou Gekiga - Shoujo Tsubaki \[544p\]\[C35BD191\].mp4 Format : MPEG-4 Format profile : Base Media Codec ID : isom File size : 594 MiB Duration : 48mn 41s Overall bit rate : 1 705 Kbps Writing application : XviD4PSP 7.0.231 iTunMOVI : <?xml version="1.0" encoding="UTF-8"?> / / <plist version="1.0"> / <dict> / <key>encoding\_info</key> / <array> / <dict> / <key>name</key> / <string><!\[CDATA\[MP4 > MP4 Apple 720p / H264 > X264 CRF 18.0 HQ / AAC-LC > AAC CBR 128kbps LC\]\]></string> / </dict> / </array> / </dict> / </plist> Video ID : 1 Format : AVC Format/Info : Advanced Video Codec Format profile : High@L4.1 Format settings, CABAC : Yes Format settings, ReFrames : 4 frames Codec ID : avc1 Codec ID/Info : Advanced Video Coding Duration : 48mn 41s Source duration : 5mn 44s Source\_Duration\_LastFrame : -21ms Bit rate : 1 572 Kbps Width : 704 pixels Height : 544 pixels Display aspect ratio : 1.294 Frame rate mode : Constant Frame rate : 23.976 fps Color space : YUV Chroma subsampling : 4:2:0 Bit depth : 8 bits Scan type : Progressive Bits/(Pixel\*Frame) : 0.171 Stream size : 547 MiB (92%) Source stream size : 547 MiB (92%) Title : 264@GPAC0.5.2-DEV-rev248-g39d5978-master Writing library : x264 core 148 r2665M a01e339 Encoding settings : cabac=1 / ref=3 / deblock=1:-1:-1 / analyse=0x3:0x133 / me=hex / subme=7 / psy=1 / psy\_rd=1.00:0.20 / mixed\_ref=1 / me\_range=16 / chroma\_me=1 / trellis=1 / 8x8dct=1 / cqm=0 / deadzone=21,11 / fast\_pskip=1 / chroma\_qp\_offset=-3 / threads=13 / lookahead\_threads=2 / sliced\_threads=0 / nr=0 / decimate=1 / interlaced=0 / bluray\_compat=0 / constrained\_intra=0 / bframes=3 / b\_pyramid=2 / b\_adapt=2 / b\_bias=0 / direct=3 / weightb=1 / open\_gop=0 / weightp=2 / keyint=230 / keyint\_min=23 / scenecut=40 / intra\_refresh=0 / rc\_lookahead=40 / rc=crf / mbtree=1 / crf=18.0 / qcomp=0.60 / qpmin=0 / qpmax=69 / qpstep=4 / vbv\_maxrate=25000 / vbv\_bufsize=25000 / crf\_max=30.0 / nal\_hrd=none / filler=0 / ip\_ratio=1.40 / aq=1:1.00 mdhd\_Duration : 2921820 Audio ID : 2 Format : AAC Format/Info : Advanced Audio Codec Format profile : LC Codec ID : 40 Duration : 48mn 41s Bit rate mode : Constant Bit rate : 128 Kbps Channel(s) : 2 channels Channel positions : Front: L R Sampling rate : 48.0 KHz Compression mode : Lossy Stream size : 44.6 MiB (8%) Title : aac@GPAC0.5.2-DEV-rev248-g39d5978-master **Visit our website at http://www.tenshifansubs.wordpress.com/ for all the latest news and updates!**

File list

  • [tenshi] Chika Gentou Gekiga - Shoujo Tsubaki [544p][C35BD191].mp4 (594.0 MiB)