[df68] One Piece Movie 11 - Film Z [BD][1080p][x264][JPN][SUB]

Category:
Date:
2015-12-29 08:51 UTC
Submitter:
Seeders:
5
Information:
No information.
Leechers:
1
File size:
6.8 GiB
Completed:
2505
Info hash:
ea1fc07879d408fdef3f48712fe62f1e4274a7f1
This concludes the last available movie of One Piece! Video ID : 1 Format : AVC Format/Info : Advanced Video Codec Format profile : High@L4.1 Format settings, CABAC : Yes Format settings, ReFrames : 4 frames Codec ID : V\_MPEG4/ISO/AVC Duration : 1h 47mn Bit rate : 6 837 Kbps Width : 1 920 pixels Height : 1 080 pixels Display aspect ratio : 16:9 Frame rate mode : Constant Frame rate : 23.976 fps Color space : YUV Chroma subsampling : 4:2:0 Bit depth : 8 bits Scan type : Progressive Bits/(Pixel\*Frame) : 0.138 Stream size : 5.16 GiB (76%) Title : encoded by darkfire68 Writing library : x264 core 148 r2638 7599210 Encoding settings : cabac=1 / ref=4 / deblock=1:1:1 / analyse=0x3:0x133 / me=umh / subme=10 / psy=1 / psy\_rd=0.50:0.00 / mixed\_ref=0 / me\_range=32 / chroma\_me=1 / trellis=2 / 8x8dct=1 / cqm=0 / deadzone=21,11 / fast\_pskip=0 / chroma\_qp\_offset=-5 / threads=18 / lookahead\_threads=4 / sliced\_threads=0 / nr=0 / decimate=1 / interlaced=0 / bluray\_compat=0 / constrained\_intra=0 / bframes=16 / b\_pyramid=2 / b\_adapt=2 / b\_bias=0 / direct=3 / weightb=1 / open\_gop=0 / weightp=2 / keyint=240 / keyint\_min=23 / scenecut=40 / intra\_refresh=0 / rc\_lookahead=50 / rc=crf / mbtree=1 / crf=17.0 / qcomp=0.60 / qpmin=0 / qpmax=69 / qpstep=4 / vbv\_maxrate=62500 / vbv\_bufsize=78125 / crf\_max=0.0 / nal\_hrd=none / filler=0 / ip\_ratio=1.40 / aq=1:1.00 Language : Japanese Default : Yes Forced : No Audio [\#1](//www.nyaa.se/?page=view&tid=1) ID : 2 Format : AC-3 Format/Info : Audio Coding 3 Mode extension : CM (complete main) Format settings, Endianness : Big Codec ID : A\_AC3 Duration : 1h 47mn Bit rate mode : Constant Bit rate : 448 Kbps Channel(s) : 2 channels Channel positions : Front: L R Sampling rate : 48.0 KHz Bit depth : 16 bits Compression mode : Lossy Stream size : 346 MiB (5%) Title : Japanese Audio 2.0 (AC3 448kbps) Language : Japanese Default : Yes Forced : No Audio [\#2](//www.nyaa.se/?page=view&tid=2) ID : 3 Format : DTS Format/Info : Digital Theater Systems Mode : 16 Format settings, Endianness : Big Codec ID : A\_DTS Duration : 1h 47mn Bit rate mode : Constant Bit rate : 1 509 Kbps Channel(s) : 6 channels Channel positions : Front: L C R, Side: L R, LFE Sampling rate : 48.0 KHz Bit depth : 24 bits Compression mode : Lossy Stream size : 1.14 GiB (17%) Title : Japanese Audio 5.1 (DTS 1509kbps) Language : Japanese Default : No Forced : No Text [\#1](//www.nyaa.se/?page=view&tid=1) ID : 4 Format : UTF-8 Codec ID : S\_TEXT/UTF8 Codec ID/Info : UTF-8 Plain Text Title : English Subtitle (SRT) Language : English Default : Yes Forced : No Text [\#2](//www.nyaa.se/?page=view&tid=2) ID : 5 Format : ASS Codec ID : S\_TEXT/ASS Codec ID/Info : Advanced Sub Station Alpha Compression mode : Lossless Title : English Formatted Subtitle (ASS) Language : English Default : No Forced : No

File list