[BDRemux] Cowboy Bebop 1998, 1080i sub+dub

Category:
Date:
2013-09-06 02:18 UTC
Submitter:
Seeders:
0
Information:
No information.
Leechers:
4
File size:
181.7 GiB
Completed:
0
Info hash:
4caabf5e8787bde1cc0d159a1a46ab0454230ea7
Bandai Visual BCXM-0605 English dub from the NTSC Remix Boxset Ex: `General<br></br>Unique ID : 144206477491726840788237268662593216763 (0x6C7D2845F739018C681EAC15F90360FB)<br></br>Complete name : 01_Asteroid-Blues.mkv<br></br>Format : Matroska<br></br>Format version : Version 2<br></br>File size : 6.98 GiB<br></br>Duration : 24mn 43s<br></br>Overall bit rate mode : Variable<br></br>Overall bit rate : 40.4 Mbps<br></br>Encoded date : UTC 2013-08-31 19:42:20<br></br>Writing application : mkvmerge v5.7.0 ('The Whirlwind') built on Jul 30 2012 10:05:24<br></br>Writing library : libebml v1.2.3 + libmatroska v1.3.0<br></br>Attachment : Yes / Yes / Yes<br></br><br></br>Video<br></br>ID : 1<br></br>Format : AVC<br></br>Format/Info : Advanced Video Codec<br></br>Format profile : High@L4.1<br></br>Format settings, CABAC : Yes<br></br>Format settings, ReFrames : 4 frames<br></br>Muxing mode : Header stripping<br></br>Codec ID : V_MPEG4/ISO/AVC<br></br>Duration : 24mn 43s<br></br>Bit rate mode : Variable<br></br>Maximum bit rate : 38.5 Mbps<br></br>Width : 1 920 pixels<br></br>Height : 1 080 pixels<br></br>Display aspect ratio : 16:9<br></br>Frame rate mode : Constant<br></br>Frame rate : 29.970 fps<br></br>Color space : YUV<br></br>Chroma subsampling : 4:2:0<br></br>Bit depth : 8 bits<br></br>Scan type : MBAFF<br></br>Language : Japanese<br></br>Default : Yes<br></br>Forced : No<br></br><br></br>Audio <a href="//www.nyaa.se/?page=view&tid=1">#1</a><br></br>ID : 2<br></br>Format : WavPack<br></br>Format profile : 4.07<br></br>Codec ID : A_WAVPACK4<br></br>Duration : 24mn 43s<br></br>Bit rate mode : Variable<br></br>Channel count : 2 channels<br></br>Sampling rate : 48.0 KHz<br></br>Bit depth : 24 bits<br></br>Title : Stereo<br></br>Encoding settings : -h -hh -x6<br></br>Language : Japanese<br></br>Default : Yes<br></br>Forced : No<br></br><br></br>Audio <a href="//www.nyaa.se/?page=view&tid=2">#2</a><br></br>ID : 3<br></br>Format : AC-3<br></br>Format/Info : Audio Coding 3<br></br>Format profile : Dolby Digital<br></br>Mode extension : CM (complete main)<br></br>Format settings, Endianness : Big<br></br>Muxing mode : Header stripping<br></br>Codec ID : A_AC3<br></br>Duration : 24mn 43s<br></br>Bit rate mode : Constant<br></br>Bit rate : 192 Kbps<br></br>Channel count : 2 channels<br></br>Channel positions : Front: L R<br></br>Sampling rate : 48.0 KHz<br></br>Bit depth : 16 bits<br></br>Compression mode : Lossy<br></br>Delay relative to video : 1s 9ms<br></br>Stream size : 34.0 MiB (0%)<br></br>Title : Stereo<br></br>Language : English<br></br>Default : No<br></br>Forced : No<br></br><br></br>Audio <a href="//www.nyaa.se/?page=view&tid=3">#3</a><br></br>ID : 4<br></br>Format : WavPack<br></br>Format profile : 4.07<br></br>Codec ID : A_WAVPACK4<br></br>Duration : 24mn 43s<br></br>Bit rate mode : Variable<br></br>Channel count : 6 channels<br></br>Channel positions : Front: L C R, Side: L R, LFE<br></br>Sampling rate : 48.0 KHz<br></br>Bit depth : 24 bits<br></br>Title : 5.1 (FL,FR,FC,LFE,SL,SR)<br></br>Encoding settings : -h -hh -x6<br></br>Language : Japanese<br></br>Default : No<br></br>Forced : No<br></br><br></br>Audio <a href="//www.nyaa.se/?page=view&tid=4">#4</a><br></br>ID : 5<br></br>Format : AC-3<br></br>Format/Info : Audio Coding 3<br></br>Mode extension : CM (complete main)<br></br>Format settings, Endianness : Big<br></br>Muxing mode : Header stripping<br></br>Codec ID : A_AC3<br></br>Duration : 24mn 43s<br></br>Bit rate mode : Constant<br></br>Bit rate : 448 Kbps<br></br>Channel count : 6 channels<br></br>Channel positions : Front: L C R, Side: L R, LFE<br></br>Sampling rate : 48.0 KHz<br></br>Bit depth : 16 bits<br></br>Compression mode : Lossy<br></br>Delay relative to video : 1s 9ms<br></br>Stream size : 79.2 MiB (1%)<br></br>Title : 5.1 (FL,FR,FC,LFE,SL,SR)<br></br>Language : English<br></br>Default : No<br></br>Forced : No<br></br><br></br>Text<br></br>ID : 6<br></br>Format : ASS<br></br>Codec ID : S_TEXT/ASS<br></br>Codec ID/Info : Advanced Sub Station Alpha<br></br>Compression mode : Lossless<br></br>Language : English<br></br>Default : Yes<br></br>Forced : No<br></br><br></br>Menu<br></br>00:00:00.000 : en:Prologue<br></br>00:00:49.082 : en:Opening<br></br>00:02:18.839 : en:Part A<br></br>00:12:24.711 : en:Part B<br></br>00:22:36.589 : en:Ending<br></br>00:24:11.850 : en:Preview<br></br>`

File list

  • Cowboy-Bebop_1998_(Bandai Visual BCXM-0605)_1080iBD-JPN-2012
    • 01_Asteroid-Blues.mkv (7.0 GiB)
    • 02_Stray-Dog-Strut.mkv (6.3 GiB)
    • 03_Honky-Tonk-Women.mkv (7.0 GiB)
    • 04_Gateway-Shuffle.mkv (7.0 GiB)
    • 05_Ballad-of-Fallen-Angels.mkv (6.8 GiB)
    • 06_Sympathy-for-the-Devil.mkv (7.0 GiB)
    • 07_Heavy-Metal-Queen.mkv (7.1 GiB)
    • 08_Waltz-for-Venus.mkv (6.9 GiB)
    • 09_Jamming-with-Edward.mkv (7.0 GiB)
    • 10_Ganymede-Ellegy.mkv (7.0 GiB)
    • 11_Toys-in-the-Attic.mkv (7.0 GiB)
    • 12_Jupiter-Jazz_1.mkv (7.0 GiB)
    • 13_Jupiter-Jazz_2.mkv (7.1 GiB)
    • 14_Bohemian-Rhapsody.mkv (7.0 GiB)
    • 15_My-Funny-Valentine.mkv (7.1 GiB)
    • 16_Black-Dog-Serenade.mkv (7.2 GiB)
    • 17_Mushroom-Samba.mkv (6.8 GiB)
    • 18_Speak-Like-a-Child.mkv (7.1 GiB)
    • 19_Wild-Horses.mkv (6.9 GiB)
    • 20_Pierrot-le-Fou.mkv (7.0 GiB)
    • 21_Boogie-Woogie-Feng-Shui.mkv (7.0 GiB)
    • 22_Cowboy-Funk.mkv (7.0 GiB)
    • 23_Brain-Scratch.mkv (7.0 GiB)
    • 24_Hard-Luck-Woman.mkv (7.0 GiB)
    • 25_The-Real-Folk-Blues_1.mkv (7.1 GiB)
    • 26_The-Real-Folk-Blues_2.mkv (7.2 GiB)
    • ac3-delay.info (357 Bytes)
    • subs.tgz (214.4 KiB)
fix this please it gets stuck at 18.9% :/