Street Fighter II Victory [JapEng-Dub][GerEng-Sub]

Category:
Date:
2013-03-05 16:07 UTC
Submitter:
Seeders:
0
Information:
Leechers:
2
File size:
10.0 GiB
Completed:
0
Info hash:
feee0fc5b52d97ac88b5fb90d4471ca16892470f
...::: Release Infos ::: Sprache: Japanisch, Englisch ::: Untertitel: Deutsch, Englisch ::: Videoformat: Mkv ::: Codec: Xvid ::: Auflösung: 704x528 ::: Sound: AC3 2.0 192KBps ::: Hinweis: German sub by MeisterMutaito ::: Kommentar: komplett 29/29 MediaInfo: `General<br></br>Unique ID : 223215236612929250411881940728775986602 (0xA7EDB0D9D14BD3E89FECE24D92704DAA)<br></br>Complete name : K:\Filme\Anime\Street Fighter\Street Fighter II V 01 - Die Reise nach San Francisco [Jap.Eng.Dub][Ger.Eng.Sub][MeisterMutaito].mkv<br></br>Format : Matroska<br></br>Format version : Version 2<br></br>File size : 352 MiB<br></br>Duration : 23mn 29s<br></br>Overall bit rate : 2 093 Kbps<br></br>Movie name : Street Fighter II V E01 Die Reise nach San Francisco<br></br>Encoded date : UTC 2012-03-15 18:52:19<br></br>Writing application : mkvmerge v5.0.0 ('Die Wahre Liebe') built on Sep 25 2011 20:33:49<br></br>Writing library : libebml v1.2.2 + libmatroska v1.3.0<br></br>Attachment : Yes / Yes / Yes / Yes / Yes / Yes / Yes / Yes / Yes / Yes<br></br><br></br>Video<br></br>ID : 1<br></br>Format : MPEG-4 Visual<br></br>Format profile : Advanced Simple@L5<br></br>Format settings, BVOP : Yes<br></br>Format settings, QPel : No<br></br>Format settings, GMC : No warppoints<br></br>Format settings, Matrix : Default (H.263)<br></br>Codec ID : XVID<br></br>Codec ID/Hint : XviD<br></br>Duration : 23mn 29s<br></br>Bit rate : 1 668 Kbps<br></br>Width : 704 pixels<br></br>Height : 528 pixels<br></br>Display aspect ratio : 4:3<br></br>Frame rate : 23.976 fps<br></br>Color space : YUV<br></br>Chroma subsampling : 4:2:0<br></br>Bit depth : 8 bits<br></br>Scan type : Progressive<br></br>Compression mode : Lossy<br></br>Bits/(Pixel*Frame) : 0.187<br></br>Stream size : 280 MiB (80%)<br></br>Title : MeisterMutaito<br></br>Writing library : XviD 1.1.2 (UTC 2006-11-01)<br></br>Language : German<br></br><br></br>Audio <a href="//www.nyaa.se/?page=view&tid=1">#1</a><br></br>ID : 2<br></br>Format : AC-3<br></br>Format/Info : Audio Coding 3<br></br>Mode extension : CM (complete main)<br></br>Muxing mode : Header stripping<br></br>Codec ID : A_AC3<br></br>Duration : 23mn 29s<br></br>Bit rate mode : Constant<br></br>Bit rate : 192 Kbps<br></br>Channel(s) : 2 channels<br></br>Channel positions : Front: L R<br></br>Sampling rate : 48.0 KHz<br></br>Bit depth : 16 bits<br></br>Compression mode : Lossy<br></br>Stream size : 32.3 MiB (9%)<br></br>Title : AC3<br></br>Language : Japanese<br></br><br></br>Audio <a href="//www.nyaa.se/?page=view&tid=2">#2</a><br></br>ID : 3<br></br>Format : AC-3<br></br>Format/Info : Audio Coding 3<br></br>Mode extension : CM (complete main)<br></br>Muxing mode : Header stripping<br></br>Codec ID : A_AC3<br></br>Duration : 23mn 29s<br></br>Bit rate mode : Constant<br></br>Bit rate : 192 Kbps<br></br>Channel(s) : 2 channels<br></br>Channel positions : Front: L R<br></br>Sampling rate : 48.0 KHz<br></br>Bit depth : 16 bits<br></br>Compression mode : Lossy<br></br>Stream size : 32.3 MiB (9%)<br></br>Title : AC3<br></br>Language : English<br></br><br></br>Text <a href="//www.nyaa.se/?page=view&tid=1">#1</a><br></br>ID : 4<br></br>Format : ASS<br></br>Codec ID : S_TEXT/ASS<br></br>Codec ID/Info : Advanced Sub Station Alpha<br></br>Compression mode : Lossless<br></br>Title : VHS<br></br>Language : German<br></br><br></br>Text <a href="//www.nyaa.se/?page=view&tid=2">#2</a><br></br>ID : 5<br></br>Format : ASS<br></br>Codec ID : S_TEXT/ASS<br></br>Codec ID/Info : Advanced Sub Station Alpha<br></br>Compression mode : Lossless<br></br>Title : DVD<br></br>Language : English<br></br><br></br>` ...::: Screenshots [![Image](http://i.imagebanana.com/img/kikt0pt7/thumb/vlcsnap2013030522h39m07s209.png)](http://www.imagebanana.com/view/kikt0pt7/vlcsnap2013030522h39m07s209.png)[![Image](http://i.imagebanana.com/img/yu4espoi/thumb/vlcsnap2013030522h40m34s52.png)](http://www.imagebanana.com/view/yu4espoi/vlcsnap2013030522h40m34s52.png)[![Image](http://i.imagebanana.com/img/udepqfsp/thumb/vlcsnap2013030522h38m45s244.png)](http://www.imagebanana.com/view/udepqfsp/vlcsnap2013030522h38m45s244.png)[![Image](http://i.imagebanana.com/img/4jv0a2tx/thumb/vlcsnap2013030522h41m02s75.png)](http://www.imagebanana.com/view/4jv0a2tx/vlcsnap2013030522h41m02s75.png)

File list

  • Street Fighter II Victory [JapEng-Dub][GerEng-Sub][mkv]
    • Street Fighter II V 01 - Die Reise nach San Francisco [Jap.Eng.Dub][Ger.Eng.Sub][MeisterMutaito].mkv (351.6 MiB)
    • Street Fighter II V 02 - König der Luftwaffe [Jap.Eng.Dub][Ger.Eng.Sub][MeisterMutaito].mkv (357.1 MiB)
    • Street Fighter II V 03 - Landung in Hong Kong [Jap.Eng.Dub][Ger.Eng.Sub][MeisterMutaito].mkv (352.1 MiB)
    • Street Fighter II V 04 - Flucht aus der Kowloon-Burg [Jap.Eng.Dub][Ger.Eng.Sub][MeisterMutaito].mkv (341.2 MiB)
    • Street Fighter II V 05 - Filmaufnahmen mit Fei-Long [Jap.Eng.Dub][Ger.Eng.Sub][MeisterMutaito].mkv (356.1 MiB)
    • Street Fighter II V 06 - Das Qi-Misterium [Jap.Eng.Dub][Ger.Eng.Sub][MeisterMutaito].mkv (355.0 MiB)
    • Street Fighter II V 07 - Überfall der Asura-Bande [Jap.Eng.Dub][Ger.Eng.Sub][MeisterMutaito].mkv (356.6 MiB)
    • Street Fighter II V 08 - Schrei nach Wahrheit [Jap.Eng.Dub][Ger.Eng.Sub][MeisterMutaito].mkv (356.1 MiB)
    • Street Fighter II V 09 - Spuren der Unterwelt [Jap.Eng.Dub][Ger.Eng.Sub][MeisterMutaito].mkv (355.1 MiB)
    • Street Fighter II V 10 - Besuch bei der Bestie [Jap.Eng.Dub][Ger.Eng.Sub][MeisterMutaito].mkv (356.1 MiB)
    • Street Fighter II V 11 - Der Rat Des Heiligen [Jap.Eng.Dub][Ger.Eng.Sub][MeisterMutaito].mkv (356.1 MiB)
    • Street Fighter II V 12 - Der Entscheidungskampf [Jap.Eng.Dub][Ger.Eng.Sub][MeisterMutaito].mkv (356.1 MiB)
    • Street Fighter II V 13 - Die HADOKO-Tradition [Jap.Eng.Dub][Ger.Eng.Sub][MeisterMutaito].mkv (353.2 MiB)
    • Street Fighter II V 14 - Der Blutgierige Adelige [Jap.Eng.Dub][Ger.Eng.Sub][MeisterMutaito].mkv (356.1 MiB)
    • Street Fighter II V 15 - Kampf auf Leben und Tod [Jap.Eng.Dub][Ger.Eng.Sub][MeisterMutaito].mkv (356.0 MiB)
    • Street Fighter II V 16 - Der Wahre Oberboss [Jap.Eng.Dub][Ger.Eng.Sub][MeisterMutaito].mkv (356.1 MiB)
    • Street Fighter II V 17 - Der Befehl Des Tyrannen [Jap.Eng.Dub][Ger.Eng.Sub][MeisterMutaito].mkv (356.1 MiB)
    • Street Fighter II V 18 - Die Schöne Attentäterin [Jap.Eng.Dub][Ger.Eng.Sub][MeisterMutaito].mkv (356.0 MiB)
    • Street Fighter II V 19 - Der Mann aus Stahl [Jap.Eng.Dub][Ger.Eng.Sub][MeisterMutaito].mkv (355.0 MiB)
    • Street Fighter II V 20 - Verborgene Kräfte [Jap.Eng.Dub][Ger.Eng.Sub][MeisterMutaito].mkv (356.1 MiB)
    • Street Fighter II V 21 - Die Gehirnmanipulation [Jap.Eng.Dub][Ger.Eng.Sub][MeisterMutaito].mkv (356.0 MiB)
    • Street Fighter II V 22 - Die Kraft des Hadoko [Jap.Eng.Dub][Ger.Eng.Sub][MeisterMutaito].mkv (353.1 MiB)
    • Street Fighter II V 23 - Der dem Bösen verfallene Held [Jap.Eng.Dub][Ger.Eng.Sub][MeisterMutaito].mkv (355.6 MiB)
    • Street Fighter II V 24 - Alptraumhaftes Wiedersehen [Jap.Eng.Dub][Ger.Eng.Sub][MeisterMutaito].mkv (356.1 MiB)
    • Street Fighter II V 25 - Kampf bis zum Tod (Teil 1) [Jap.Eng.Dub][Ger.Eng.Sub][MeisterMutaito].mkv (356.1 MiB)
    • Street Fighter II V 26 - Kampf bis zum Tod (Teil 2) [Jap.Eng.Dub][Ger.Eng.Sub][MeisterMutaito].mkv (356.1 MiB)
    • Street Fighter II V 27 - Kampf bis zum Tod (Teil 3) [Jap.Eng.Dub][Ger.Eng.Sub][MeisterMutaito].mkv (355.5 MiB)
    • Street Fighter II V 28 - Kampf bis zum Tod (Teil 4) [Jap.Eng.Dub][Ger.Eng.Sub][MeisterMutaito].mkv (356.1 MiB)
    • Street Fighter II V 29 - Die Finale Entscheidungsschlacht [Jap.Eng.Dub][Ger.Eng.Sub][MeisterMutaito].mkv (353.5 MiB)