[UsifRenegade] Spare Me! Great Lord! [Da Wang Rao Ming] Season 02 [1080p]

Category:
Date:
2024-06-21 17:41 UTC
Submitter:
Seeders:
11
Information:
No information.
Leechers:
2
File size:
2.8 GiB
Completed:
311
Info hash:
18ade426c195b07d5fc5e23b1eb61f5ed0e8ce03
This is just simply for the sake of uploading another copy incase others want it. This is not to take away from Uruz7Laevatein upload which I'm also thankful for since this is a great show and it sadly does not get the releases it deserves. This release is significalty smaller and is also 24FPS rather than 60FPS if that is something people are also after. I myself can't watch animes rat 60FPS personally so this helps for me. I wish I could get Uruz7Laevatein release at 24FPS honestly but the quality itself is very good for the size so thankfully it's not something you feel too much. As for the subtitles; they seem to be the same ones in Uruz7Laevatein release. I have done some minor tweaks to timing and OCR that's about it really. The subtitles themselves are ... Well let's just say they will have to suffice. They are not the best and they are not the worst. Got to take what we can I suppose. I have put two subtitle tracks. Both are coloured and bold to help with reading. Default track is the .ass version and secondary is an srt. If anyone would like the subtitles themselves, I can upload them to Mega later. I simply put this up on the request of a friend. Hope you guys like. Examples: ![alt text](https://i.imgur.com/HbNzl8v.png "Example 01") [Example 02](https://i.imgur.com/13Pln6H.png) [Example 03](https://i.imgur.com/RBjL0K9.png) [Example 04](https://i.imgur.com/5jETI59.png) General Unique ID : 201056430940020015947474381431854122209 (0x97420F61CA23433A0A7CAFFE5400C4E1) Complete name : [UsifRenegade] Spare Me! Great Lord! (Da Wang Rao Ming) S02E01 [1080p][AVC_GB][Softsub].mkv Format : Matroska Format version : Version 4 File size : 310 MiB Duration : 34 min 5 s Overall bit rate : 1 270 kb/s Frame rate : 24.000 FPS Encoded date : 2024-06-21 16:57:34 UTC Writing application : mkvmerge v64.0.0 ('Willows') 64-bit Writing library : libebml v1.4.2 + libmatroska v1.6.4 Video ID : 1 Format : AVC Format/Info : Advanced Video Codec Format profile : High@L4 Format settings : CABAC / 4 Ref Frames Format settings, CABAC : Yes Format settings, Reference frames : 4 frames Codec ID : V_MPEG4/ISO/AVC Duration : 34 min 5 s Bit rate : 1 174 kb/s Width : 1 920 pixels Height : 1 080 pixels Display aspect ratio : 16:9 Frame rate mode : Constant Frame rate : 24.000 FPS Color space : YUV Chroma subsampling : 4:2:0 Bit depth : 8 bits Scan type : Progressive Bits/(Pixel*Frame) : 0.024 Stream size : 286 MiB (92%) Language : Chinese Default : Yes Forced : No Color range : Limited Color primaries : BT.709 Transfer characteristics : BT.709 Matrix coefficients : BT.709 Audio ID : 2 Format : AAC LC Format/Info : Advanced Audio Codec Low Complexity Codec ID : A_AAC-2 Duration : 34 min 5 s Bit rate : 93.4 kb/s Channel(s) : 2 channels Channel layout : L R Sampling rate : 48.0 kHz Frame rate : 46.875 FPS (1024 SPF) Compression mode : Lossy Delay relative to video : -42 ms Stream size : 22.8 MiB (7%) Language : Chinese Default : Yes Forced : No

File list

  • Spare Me! Great Lord! [Da Wang Rao Ming] Season 02 [1080p]
    • [UsifRenegade] Spare Me! Great Lord! (Da Wang Rao Ming) S02E01 [1080p][AVC_GB][Softsub].mkv (309.7 MiB)
    • [UsifRenegade] Spare Me! Great Lord! (Da Wang Rao Ming) S02E02 [1080p][AVC_GB][Softsub].mkv (237.4 MiB)
    • [UsifRenegade] Spare Me! Great Lord! (Da Wang Rao Ming) S02E03 [1080p][AVC_GB][Softsub].mkv (225.4 MiB)
    • [UsifRenegade] Spare Me! Great Lord! (Da Wang Rao Ming) S02E04 [1080p][AVC_GB][Softsub].mkv (204.4 MiB)
    • [UsifRenegade] Spare Me! Great Lord! (Da Wang Rao Ming) S02E05 [1080p][AVC_GB][Softsub].mkv (192.5 MiB)
    • [UsifRenegade] Spare Me! Great Lord! (Da Wang Rao Ming) S02E06 [1080p][AVC_GB][Softsub].mkv (228.0 MiB)
    • [UsifRenegade] Spare Me! Great Lord! (Da Wang Rao Ming) S02E07 [1080p][AVC_GB][Softsub].mkv (197.4 MiB)
    • [UsifRenegade] Spare Me! Great Lord! (Da Wang Rao Ming) S02E08 [1080p][AVC_GB][Softsub].mkv (189.5 MiB)
    • [UsifRenegade] Spare Me! Great Lord! (Da Wang Rao Ming) S02E09 [1080p][AVC_GB][Softsub].mkv (226.7 MiB)
    • [UsifRenegade] Spare Me! Great Lord! (Da Wang Rao Ming) S02E10 [1080p][AVC_GB][Softsub].mkv (290.9 MiB)
    • [UsifRenegade] Spare Me! Great Lord! (Da Wang Rao Ming) S02E11 [1080p][AVC_GB][Softsub].mkv (253.2 MiB)
    • [UsifRenegade] Spare Me! Great Lord! (Da Wang Rao Ming) S02E12 [1080p][AVC_GB][Softsub].mkv (355.6 MiB)
Thank you for your reasonably sized release (and normal frame rate)
Thanks for the normal frame rate! I cannot overstate how worthless Uruz7Laevatein's 60FPS releases are. I have seen many donghua not get normal frame rate releases because he uploaded his abomination first and apparently made others think that another release was not necessary. He does more harm then good. Thanks for cleaning up his mess!
Thank you for this!