[neoDESU] Gushing Over Magical Girls [Season 1] [BD 1080p x265 HEVC OPUS] Mahou Shoujo ni Akogarete

Category:
Date:
2024-06-20 18:04 UTC
Submitter:
Seeders:
72
Information:
Leechers:
9
File size:
3.2 GiB
Completed:
1663
Info hash:
dfc78ad81014b7c1a4bb45e0ab3a62f40eb78f0a
![](https://i.lensdump.com/i/6BKULK.png) *Come hang out in **[Discord](https://discord.gg/47Q7FdB54e)*** #### **[Gushing over Magical Girls [Season 1]](https://myanimelist.net/anime/54722/Mahou_Shoujo_ni_Akogarete)** --- **Synopsis** A team of three magical girls known as Tres Magia protects the town where Utena Hiiragi lives. Like many others, Utena loves these magical girls who valiantly fight in the name of justice. One day, a mysterious black mascot character appears before Utena and grants her the opportunity of a lifetime: a chance to transform into a magical girl. However, the offer is not what it seems, as Utena has been recruited for an evil organization to fight the magical girls she has always admired. Utena is then forced to confront Tres Magia in battle; but instead of feeling remorse, she unexpectedly finds pleasure in inflicting pain on the magical girls. Completely giving in to her desires, Utena embraces her role as a villain, slowly transforming her adoration for magical girls into a new sadistic obsession. ![](https://c.l3n.co/i/lGXLfK.png) --- **Source** 🗃️ Video and JPN Audio (JPN BDMV): **[Bikko]** 🗃️ Subtitles: **[[Chihiro]](https://nyaa.si/view/1835711)** *Thank you all for making this possible <3* --- **Media Info** ``` General Unique ID : 183987925811860520504458954330307445031 (0x8A6AC91B4A77CC09DFB63EC8F7FA4127) Complete name : Gushing Over Magical Girls - S01E01.mkv Format : Matroska Format version : Version 4 File size : 377 MiB Duration : 23 min 42 s Overall bit rate : 2 223 kb/s Encoded date : UTC 2024-06-01 10:00:24 Writing application : mkvmerge v72.0.0 ('Minuano (Six-eight)') 64-bit Writing library : libebml v1.4.4 + libmatroska v1.7.1 / Lavf60.3.100 Attachments : BIRTHDAY HOLIDAY.otf / BubbleGum.ttf / Chewy.ttf / ClubTypeMercuriusMedium.ttf / FOT-UDMarugo_LargePr6-B.otf / FOT-UDMarugo_LargePr6-DB.otf / FOT-UDMarugo_LargePr6-M.otf / NeutonReg-2010.9.28-1.51.ttf / Roboto-Medium.ttf / TT_Greco-B.TTF / TWINPINE.ttf / Vesta-Bold.ttf Video ID : 1 Format : HEVC Format/Info : High Efficiency Video Coding Format profile : Main 10@L4@High Codec ID : V_MPEGH/ISO/HEVC Duration : 23 min 42 s Bit rate : 1 867 kb/s Width : 1 920 pixels Height : 1 080 pixels Display aspect ratio : 16:9 Frame rate mode : Constant Frame rate : 23.976 (24000/1001) FPS Color space : YUV Chroma subsampling : 4:2:0 Bit depth : 10 bits Bits/(Pixel*Frame) : 0.038 Stream size : 316 MiB (84%) Writing library : x265 3.5+37+12-4e46995bc:[Windows][MSVC 1931][64 bit] 10bit Encoding settings : cpuid=1111039 / frame-threads=5 / numa-pools=32 / wpp / no-pmode / no-pme / no-psnr / no-ssim / log-level=2 / input-csp=1 / input-res=1920x1080 / interlace=0 / total-frames=24 / level-idc=40 / high-tier=1 / uhd-bd=0 / ref=5 / no-allow-non-conformance / no-repeat-headers / annexb / no-aud / no-eob / no-eos / no-hrd / info / hash=0 / no-temporal-layers / open-gop / min-keyint=23 / keyint=250 / gop-lookahead=0 / bframes=16 / b-adapt=2 / b-pyramid / bframe-bias=0 / rc-lookahead=120 / lookahead-slices=4 / scenecut=40 / no-hist-scenecut / radl=0 / no-splice / no-intra-refresh / ctu=64 / min-cu-size=8 / rect / no-amp / max-tu-size=32 / tu-inter-depth=1 / tu-intra-depth=1 / limit-tu=0 / rdoq-level=1 / dynamic-rd=0.00 / no-ssim-rd / signhide / no-tskip / nr-intra=0 / nr-inter=0 / no-constrained-intra / no-strong-intra-smoothing / max-merge=3 / limit-refs=3 / limit-modes / me=3 / subme=3 / merange=57 / temporal-mvp / no-frame-dup / no-hme / weightp / no-weightb / no-analyze-src-pics / deblock=-1:-1 / no-sao / no-sao-non-deblock / rd=4 / selective-sao=0 / no-early-skip / rskip / no-fast-intra / no-tskip-fast / no-cu-lossless / no-b-intra / no-splitrd-skip / rdpenalty=0 / psy-rd=1.50 / psy-rdoq=2.00 / no-rd-refine / no-lossless / cbqpoffs=0 / crqpoffs=0 / rc=crf / crf=22.0 / qcomp=0.60 / qpstep=4 / stats-write=0 / stats-read=0 / vbv-maxrate=30000 / vbv-bufsize=30000 / vbv-init=0.9 / min-vbv-fullness=50.0 / max-vbv-fullness=80.0 / crf-max=0.0 / crf-min=0.0 / ipratio=1.40 / pbratio=1.30 / aq-mode=3 / aq-strength=0.80 / aq-bias-strength=1.00 / cutree / zone-count=0 / no-strict-cbr / qg-size=32 / no-rc-grain / qpmax=69 / qpmin=0 / no-const-vbv / sar=0 / overscan=0 / videoformat=5 / range=0 / colorprim=2 / transfer=2 / colormatrix=2 / chromaloc=0 / display-window=0 / cll=0,0 / min-luma=0 / max-luma=1023 / log2-max-poc-lsb=8 / vui-timing-info / vui-hrd-info / slices=1 / no-opt-qp-pps / no-opt-ref-list-length-pps / no-multi-pass-opt-rps / scenecut-bias=0.05 / hist-threshold=0.03 / no-opt-cu-delta-qp / no-aq-motion / no-hdr10 / no-hdr10-opt / no-dhdr10-opt / no-idr-recovery-sei / analysis-reuse-level=0 / analysis-save-reuse-level=0 / analysis-load-reuse-level=0 / scale-factor=0 / refine-intra=0 / refine-inter=0 / refine-mv=1 / refine-ctu-distortion=0 / no-limit-sao / ctu-info=0 / no-lowpass-dct / refine-analysis-type=0 / copy-pic=1 / max-ausize-factor=1.0 / no-dynamic-refine / no-single-sei / no-hevc-aq / no-svt / no-field / qp-adaptation-range=1.00 / scenecut-aware-qp=0conformance-window-offsets / right=0 / bottom=0 / decoder-max-rate=0 / no-vbv-live-multi-pass Default : Yes Forced : No Audio ID : 2 Format : Opus Codec ID : A_OPUS Duration : 23 min 42 s Bit rate : 127 kb/s Channel(s) : 2 channels Channel layout : L R Sampling rate : 48.0 kHz Frame rate : 50.000 FPS (960 SPF) Bit depth : 32 bits Compression mode : Lossy Stream size : 21.5 MiB (6%) Title : Japanese Writing library : Lavc60.3.100 libopus Language : Japanese Default : Yes Forced : No Text ID : 3 Format : ASS Codec ID : S_TEXT/ASS Codec ID/Info : Advanced Sub Station Alpha Duration : 23 min 29 s Bit rate : 33.3 kb/s Frame rate : 20.894 FPS Count of elements : 29458 Compression mode : Lossless Stream size : 5.60 MiB (1%) Title : Dialogue Language : English Default : Yes Forced : No Menu 00:00:00.000 : :Intro 00:04:01.010 : :OP 00:05:30.980 : :Episode 00:22:05.970 : :ED 00:23:35.980 : :Preview ```

File list

  • [neoDESU] Gushing Over Magical Girls [Season 1] [BD 1080p x265 HEVC OPUS]
    • Gushing Over Magical Girls - S01E01.mkv (376.8 MiB)
    • Gushing Over Magical Girls - S01E02.mkv (253.7 MiB)
    • Gushing Over Magical Girls - S01E03.mkv (278.3 MiB)
    • Gushing Over Magical Girls - S01E04.mkv (274.9 MiB)
    • Gushing Over Magical Girls - S01E05.mkv (217.0 MiB)
    • Gushing Over Magical Girls - S01E06.mkv (190.7 MiB)
    • Gushing Over Magical Girls - S01E07.mkv (235.1 MiB)
    • Gushing Over Magical Girls - S01E08.mkv (223.5 MiB)
    • Gushing Over Magical Girls - S01E09.mkv (260.9 MiB)
    • Gushing Over Magical Girls - S01E10.mkv (205.2 MiB)
    • Gushing Over Magical Girls - S01E11.mkv (243.5 MiB)
    • Gushing Over Magical Girls - S01E12.mkv (214.1 MiB)
    • Gushing Over Magical Girls - S01E13.mkv (296.1 MiB)
Was waiting for a definitive release, Thanks!
Thank you! Miss the great art work though.
Absolute cinema.
Cultured and refined like a fine wine. Thanks you.
Is this the uncensored version?
@LordGrim9987 its a Blu Ray encode so yes