[MagicStar] 1122 Ii Fuufu EP04-EP05 [WEBDL] [1080p] [AMZN] [JPN_ENG_CHS_CHT_SUB]

Category:
Date:
2024-06-20 16:05 UTC
Submitter:
Seeders:
7
Information:
Leechers:
1
File size:
3.1 GiB
Completed:
878
Info hash:
54426ceeaf5775ae404fb9174902393ce79dde0e
HD 1080p from Prime Video. Use CBR bitrate mode. Japanese, English and Chinese subtitles added. ************** We are planning to upload all Prime Video Japan Dramas and Movies, we need your Support! ************** Support Us Ali (Zhifubao / QR code): https://i.ibb.co/FWV2ggm/1660626347125.png PayPalMe: https://www.paypal.com/paypalme/sakuragikenji BTC (USDT): 19y5NF6voysif7PeJLv86Hf186ZS1i4rwu ETH: 0x807B4eec355Cfa65500BeE65A992a9a0d8432697 LTC: LUC2dTQkte7muv5oUUuRNJimLJvi9pgZUQ ************** ![alt text](https://i.ibb.co/6RJFTDv/aac637c87ebc86b984f6fd6a1aec34f10119ef795e573998a05ebd7b09ddb900.jpg) ![alt text](https://i.ibb.co/Gkv2NZb/1122-Ii-Fuufu-EP04-1080p-AMZN-WEB-DL-DDP2-0-H-264-Magic-Star-mkv.jpg) ``` General Unique ID : 67326804076946831233015555803423469794 (0x32A6ABB9C1A68F94E9BFBE8B8EA470E2) Complete name : 1122.Ii.Fuufu.EP04.1080p.AMZN.WEB-DL.DDP2.0.H.264-MagicStar.mkv Format : Matroska Format version : Version 4 File size : 1.51 GiB Duration : 53 min 40 s Overall bit rate mode : Constant Overall bit rate : 4 018 kb/s Frame rate : 23.976 FPS Encoded date : 2024-06-20 15:58:40 UTC Writing application : mkvmerge v50.0.0 ('Awakenings') 64-bit Writing library : libebml v1.4.0 + libmatroska v1.6.2 Cover : Yes Attachments : cover.png Video ID : 1 Format : AVC Format/Info : Advanced Video Codec Format profile : High@L4 Format settings : CABAC / 4 Ref Frames Format settings, CABAC : Yes Format settings, Reference fra : 4 frames Codec ID : V_MPEG4/ISO/AVC Duration : 53 min 40 s Bit rate mode : Constant Bit rate : 3 792 kb/s Nominal bit rate : 10 000 kb/s Width : 1 920 pixels Height : 1 080 pixels Display aspect ratio : 16:9 Frame rate mode : Constant Frame rate : 23.976 (24000/1001) FPS Color space : YUV Chroma subsampling : 4:2:0 Bit depth : 8 bits Scan type : Progressive Bits/(Pixel*Frame) : 0.076 Stream size : 1.42 GiB (94%) Default : Yes Forced : No Color range : Limited Color primaries : BT.709 Transfer characteristics : BT.709 Matrix coefficients : BT.709 Audio ID : 2 Format : E-AC-3 Format/Info : Enhanced AC-3 Commercial name : Dolby Digital Plus Codec ID : A_EAC3 Duration : 53 min 40 s Bit rate mode : Constant Bit rate : 224 kb/s Channel(s) : 2 channels Channel layout : L R Sampling rate : 48.0 kHz Frame rate : 31.250 FPS (1536 SPF) Compression mode : Lossy Stream size : 86.0 MiB (6%) Title : 日本語 [オリジナル] Language : Japanese Service kind : Complete Main Default : Yes Forced : No ``` ![alt text](https://i.ibb.co/RyPPYtJ/1122-Ii-Fuufu-EP05-1080p-AMZN-WEB-DL-DDP2-0-H-264-Magic-Star-mkv.jpg) ``` General Unique ID : 220618702100438120780055982115258045674 (0xA5F99DD0C31E568BCDA89A2DE36B14EA) Complete name : 1122.Ii.Fuufu.EP05.1080p.AMZN.WEB-DL.DDP2.0.H.264-MagicStar.mkv Format : Matroska Format version : Version 4 File size : 1.64 GiB Duration : 53 min 14 s Overall bit rate mode : Constant Overall bit rate : 4 409 kb/s Frame rate : 23.976 FPS Encoded date : 2024-06-20 15:59:10 UTC Writing application : mkvmerge v50.0.0 ('Awakenings') 64-bit Writing library : libebml v1.4.0 + libmatroska v1.6.2 Cover : Yes Attachments : cover.png Video ID : 1 Format : AVC Format/Info : Advanced Video Codec Format profile : High@L4 Format settings : CABAC / 4 Ref Frames Format settings, CABAC : Yes Format settings, Reference fra : 4 frames Codec ID : V_MPEG4/ISO/AVC Duration : 53 min 14 s Bit rate mode : Constant Bit rate : 4 182 kb/s Nominal bit rate : 10 000 kb/s Width : 1 920 pixels Height : 1 080 pixels Display aspect ratio : 16:9 Frame rate mode : Constant Frame rate : 23.976 (24000/1001) FPS Color space : YUV Chroma subsampling : 4:2:0 Bit depth : 8 bits Scan type : Progressive Bits/(Pixel*Frame) : 0.084 Stream size : 1.56 GiB (95%) Default : Yes Forced : No Color range : Limited Color primaries : BT.709 Transfer characteristics : BT.709 Matrix coefficients : BT.709 Audio ID : 2 Format : E-AC-3 Format/Info : Enhanced AC-3 Commercial name : Dolby Digital Plus Codec ID : A_EAC3 Duration : 53 min 14 s Bit rate mode : Constant Bit rate : 224 kb/s Channel(s) : 2 channels Channel layout : L R Sampling rate : 48.0 kHz Frame rate : 31.250 FPS (1536 SPF) Compression mode : Lossy Stream size : 85.3 MiB (5%) Title : 日本語 [オリジナル] Language : Japanese Service kind : Complete Main Default : Yes Forced : No ```

File list

  • [MagicStar] 1122 Ii Fuufu EP04-EP05 [WEBDL] [1080p] [AMZN] [JPN_ENG_CHS_CHT_SUB]
    • 1122.Ii.Fuufu.EP04.1080p.AMZN.WEB-DL.DDP2.0.H.264-MagicStar.Chs.srt (30.2 KiB)
    • 1122.Ii.Fuufu.EP04.1080p.AMZN.WEB-DL.DDP2.0.H.264-MagicStar.Cht.srt (30.5 KiB)
    • 1122.Ii.Fuufu.EP04.1080p.AMZN.WEB-DL.DDP2.0.H.264-MagicStar.Eng.srt (33.2 KiB)
    • 1122.Ii.Fuufu.EP04.1080p.AMZN.WEB-DL.DDP2.0.H.264-MagicStar.Jpn.srt (41.8 KiB)
    • 1122.Ii.Fuufu.EP04.1080p.AMZN.WEB-DL.DDP2.0.H.264-MagicStar.mkv (1.5 GiB)
    • 1122.Ii.Fuufu.EP05.1080p.AMZN.WEB-DL.DDP2.0.H.264-MagicStar.Chs.srt (37.1 KiB)
    • 1122.Ii.Fuufu.EP05.1080p.AMZN.WEB-DL.DDP2.0.H.264-MagicStar.Cht.srt (37.4 KiB)
    • 1122.Ii.Fuufu.EP05.1080p.AMZN.WEB-DL.DDP2.0.H.264-MagicStar.Eng.srt (40.1 KiB)
    • 1122.Ii.Fuufu.EP05.1080p.AMZN.WEB-DL.DDP2.0.H.264-MagicStar.Jpn.srt (48.3 KiB)
    • 1122.Ii.Fuufu.EP05.1080p.AMZN.WEB-DL.DDP2.0.H.264-MagicStar.mkv (1.6 GiB)