Romeo X Juliet - The Complete Tragedy DVD REMUX + Extras

Category:
Date:
2024-06-17 18:19 UTC
Submitter:
Seeders:
5
Information:
No information.
Leechers:
1
File size:
28.1 GiB
Completed:
116
Info hash:
a3ffe2dbcbbc3646bf7f1b93e4b0377d573063ad
General Unique ID: 232780699922413877086718455272827790717 (0xAF1FEE9A8A58D52533DBC4C68EA0257D) Complete name: Romeo X Juliet - The Complete Tragedy\Romeo x Juliet - S01E01 - If They Did Not Meet.mkv Format: Matroska Format version: Version 4 File size: 1.22 GiB Duration: 23 min 42 s Overall bit rate mode: Variable Overall bit rate: 7 361 kb/s Frame rate: 29.970 FPS Writing application: mkvmerge v83.0 ('Circle Of Friends') 64-bit Writing library: libebml v1.4.5 + libmatroska v1.7.1 Video ID: 1 ID in the original source m: 224 (0xE0) Format: MPEG Video Format version: Version 2 Format profile: Main@Main Format settings: CustomMatrix / BVOP Format settings, BVOP: Yes Format settings, Matrix: Custom Format settings, GOP: Variable Format settings, picture st: Frame Codec ID: V_MPEG2 Codec ID/Info: MPEG 1 or 2 Video Duration: 23 min 42 s Bit rate mode: Variable Bit rate: 6 716 kb/s Maximum bit rate: 9 400 kb/s Width: 720 pixels Height: 480 pixels Display aspect ratio: 16:9 Frame rate mode: Constant Frame rate: 29.970 (30000/1001) FPS Standard: NTSC Color space: YUV Chroma subsampling: 4:2:0 Bit depth: 8 bits Scan type: Interlaced Scan order: Top Field First Compression mode: Lossy Bits/(Pixel*Frame): 0.648 Time code of first frame: 00:59:59:00 Time code source: Group of pictures header Stream size: 1.11 GiB (91%) Language: English Default: No Forced: No Original source medium: DVD-Video Audio #1 ID: 2 ID in the original source m: 189 (0xBD)128 (0x80) Format: AC-3 Format/Info: Audio Coding 3 Commercial name: Dolby Digital Format settings: Dolby Pro Logic IIz Codec ID: A_AC3 Duration: 23 min 42 s Bit rate mode: Constant Bit rate: 448 kb/s Channel(s): 6 channels Channel layout: L R C LFE Ls Rs Sampling rate: 48.0 kHz Frame rate: 31.250 FPS (1536 SPF) Compression mode: Lossy Stream size: 75.9 MiB (6%) Title: Surround 5.1 Language: English Service kind: Complete Main Default: Yes Forced: No Original source medium: DVD-Video Dialog Normalization: -27 dB compr: -0.28 dB cmixlev: -3.0 dB surmixlev: -6 dB mixlevel: 205 dB roomtyp: 3 dialnorm_Average: -27 dB dialnorm_Minimum: -27 dB dialnorm_Maximum: -27 dB Audio #2 ID: 3 ID in the original source m: 189 (0xBD)129 (0x81) Format: AC-3 Format/Info: Audio Coding 3 Commercial name: Dolby Digital Codec ID: A_AC3 Duration: 23 min 42 s Bit rate mode: Constant Bit rate: 192 kb/s Channel(s): 2 channels Channel layout: L R Sampling rate: 48.0 kHz Frame rate: 31.250 FPS (1536 SPF) Compression mode: Lossy Stream size: 32.5 MiB (3%) Title: Stereo Language: Japanese Service kind: Complete Main Default: No Forced: No Original source medium: DVD-Video Dialog Normalization: -28 dB compr: -0.28 dB mixlevel: 204 dB roomtyp: 3 ltrtcmixlev: -3.0 dB ltrtsurmixlev: -3.0 dB lorocmixlev: -3.0 dB lorosurmixlev: -3.0 dB dialnorm_Average: -28 dB dialnorm_Minimum: -28 dB dialnorm_Maximum: -28 dB Text #1 ID: 4 ID in the original source m: 189 (0xBD)32 (0x20) Format: VobSub Muxing mode: zlib Codec ID: S_VOBSUB Codec ID/Info: Picture based subtitle format used on DVDs Duration: 22 min 53 s Bit rate: 610 b/s Frame rate: 0.027 FPS Count of elements: 37 Stream size: 102 KiB (0%) Language: English Default: Yes Forced: No Original source medium: DVD-Video Text #2 ID: 5 ID in the original source m: 189 (0xBD)33 (0x21) Format: VobSub Muxing mode: zlib Codec ID: S_VOBSUB Codec ID/Info: Picture based subtitle format used on DVDs Duration: 23 min 33 s Bit rate: 4 684 b/s Frame rate: 0.233 FPS Count of elements: 329 Stream size: 808 KiB (0%) Language: English Default: No Forced: No Original source medium: DVD-Video Menu 00:00:00.000: en:Chapter 01 00:02:11.998: en:Chapter 02 00:03:42.055: en:Chapter 03 00:11:48.074: en:Chapter 04 00:21:41.066: en:Chapter 05 00:23:11.022: en:Chapter 06

File list

  • Romeo X Juliet - The Complete Tragedy
    • Extras
      • Original Trailers.mkv (255.5 MiB)
      • Romeo × Juliet Ending (Clean).mkv (67.6 MiB)
      • Romeo × Juliet Ending 2 (Clean).mkv (68.1 MiB)
      • Romeo × Juliet Opening (Clean).mkv (68.2 MiB)
      • The Making of Romeo and Juliet Anime.mkv (1.2 GiB)
    • Romeo x Juliet - S01E01 - If They Did Not Meet.mkv (1.2 GiB)
    • Romeo x Juliet - S01E02 - The Promise A Scent Remembered.mkv (1.2 GiB)
    • Romeo x Juliet - S01E03 - Love Cruel Mischief.mkv (1.2 GiB)
    • Romeo x Juliet - S01E04 - Bashfulness Beaten by the Rain.mkv (1.2 GiB)
    • Romeo x Juliet - S01E05 - Whirlwind Burning Resolve.mkv (1.2 GiB)
    • Romeo x Juliet - S01E06 - Hope Tomorrow Entrusted.mkv (1.2 GiB)
    • Romeo x Juliet - S01E07 - Warmth Just for Now.mkv (957.6 MiB)
    • Romeo x Juliet - S01E08 - Naïveté What Justice Is.mkv (961.1 MiB)
    • Romeo x Juliet - S01E09 - Rise to Action Hesitation Quelled.mkv (941.5 MiB)
    • Romeo x Juliet - S01E10 - Tears To Have Met You.mkv (958.7 MiB)
    • Romeo x Juliet - S01E11 - The Vows The Blessing of the Morning Sun.mkv (960.8 MiB)
    • Romeo x Juliet - S01E12 - Solace To Stay This Way.mkv (961.6 MiB)
    • Romeo x Juliet - S01E13 - Pulsation Guided.mkv (1.2 GiB)
    • Romeo x Juliet - S01E14 - Solemn Responsibilities In the Circle of These Arms.mkv (1.2 GiB)
    • Romeo x Juliet - S01E15 - The Self The Way Forward.mkv (1.2 GiB)
    • Romeo x Juliet - S01E16 - One Person So Dear.mkv (1.2 GiB)
    • Romeo x Juliet - S01E17 - Cruel Tyrant Darkness, the Origin.mkv (1.2 GiB)
    • Romeo x Juliet - S01E18 - Aspirations In Each of Their Hearts.mkv (1.2 GiB)
    • Romeo x Juliet - S01E19 - Succession I Am None Other.mkv (1.0 GiB)
    • Romeo x Juliet - S01E20 - Duty Unwavering Step.mkv (1.0 GiB)
    • Romeo x Juliet - S01E21 - The Covenant The Goddess's Embrace.mkv (1.0 GiB)
    • Romeo x Juliet - S01E22 - Curse Raging Fury.mkv (1.0 GiB)
    • Romeo x Juliet - S01E23 - Seed Brought to Life The Kiss of Death.mkv (1.0 GiB)
    • Romeo x Juliet - S01E24 - Prayer In the Same World as You.mkv (1.0 GiB)

Coolhardy100 (uploader)

User
@uly Welcome. hope you enjoy the series
@Coolhardy100 Hi dude,since no one isn't ripping will you rip first 150 episode of Naruto Shippuden BDs?

Coolhardy100 (uploader)

User
@ZeroviBritannia there are only 3 sets released so far so that's up to Episode 82 but i am buying them

Coolhardy100 (uploader)

User
@Akuma_Blade sorry a lot of people are downloading and running but i am seeding as much as i can. i already seeded about 1TB so far.