[MagicStar] Tokyo Tower EP09 END [WEBDL] [1080p] [JPN_SUB]

Category:
Date:
2024-06-15 23:47 UTC
Submitter:
Seeders:
5
Information:
Leechers:
0
File size:
987.4 MiB
Completed:
625
Info hash:
94524815010d6876608336f3302313ca58d88b73
HD 1080p from TVer. Japanese subtitles added. ![alt text](https://i.ibb.co/wpD6Q5B/GLh-MNd-Rb-QAAn7c-L.jpg) ![alt text](https://i.ibb.co/7NF4GGf/Magic-Star-Tokyo-Tower-EP09-END-WEBDL-1080p-mkv.jpg) ``` General Unique ID : 261253213395138757015985543714897675684 (0xC48B89E69295BB6501E157979D1445A4) Complete name : [MagicStar] Tokyo Tower EP09 END [WEBDL] [1080p].mkv Format : Matroska Format version : Version 4 File size : 987 MiB Duration : 47 min 47 s Overall bit rate : 2 889 kb/s Frame rate : 29.970 FPS Encoded date : 2024-06-15 19:10:30 UTC Writing application : mkvmerge v50.0.0 ('Awakenings') 64-bit Writing library : libebml v1.4.0 + libmatroska v1.6.2 Video ID : 1 Format : AVC Format/Info : Advanced Video Codec Format profile : High@L4 Format settings : CABAC / 4 Ref Frames Format settings, CABAC : Yes Format settings, Reference fra : 4 frames Codec ID : V_MPEG4/ISO/AVC Duration : 47 min 46 s Bit rate : 2 695 kb/s Width : 1 920 pixels Height : 1 080 pixels Display aspect ratio : 16:9 Frame rate mode : Constant Frame rate : 29.970 (29970/1000) FPS Original frame rate : 29.970 (30000/1001) FPS Color space : YUV Chroma subsampling : 4:2:0 Bit depth : 8 bits Scan type : Progressive Bits/(Pixel*Frame) : 0.043 Stream size : 921 MiB (93%) Default : Yes Forced : No Color range : Limited Matrix coefficients : BT.709 Audio ID : 2 Format : AAC LC Format/Info : Advanced Audio Codec Low Complexity Codec ID : A_AAC-2 Duration : 47 min 47 s Bit rate : 192 kb/s Channel(s) : 2 channels Channel layout : L R Sampling rate : 48.0 kHz Frame rate : 46.875 FPS (1024 SPF) Compression mode : Lossy Stream size : 65.2 MiB (7%) Title : 日本語 [オリジナル] Language : Japanese Default : Yes Forced : No ```

File list