[MagicStar] 9 Border EP09 [WEBDL] [1080p] [JPN_SUB]

Category:
Date:
2024-06-15 19:17 UTC
Submitter:
Seeders:
4
Information:
Leechers:
1
File size:
926.9 MiB
Completed:
796
Info hash:
d07f7dd807d1ef39ab3ec257af918dcf63c92340
HD 1080p from TVer. Japanese subtitles added. ![alt text](https://i.ibb.co/VTsyv4X/25155.jpg) ![alt text](https://i.ibb.co/8rFFWKK/Magic-Star-9-Border-EP09-WEBDL-1080p-mkv.jpg) ``` General Unique ID : 253622410944174314602146565857587558730 (0xBECDE64AE879D1D1C40A146B151CF94A) Complete name : [MagicStar] 9 Border EP09 [WEBDL] [1080p].mkv Format : Matroska Format version : Version 4 File size : 927 MiB Duration : 45 min 8 s Overall bit rate : 2 870 kb/s Frame rate : 29.970 FPS Encoded date : 2024-06-15 18:51:28 UTC Writing application : mkvmerge v50.0.0 ('Awakenings') 64-bit Writing library : libebml v1.4.0 + libmatroska v1.6.2 Video ID : 1 Format : AVC Format/Info : Advanced Video Codec Format profile : High@L4 Format settings : CABAC / 4 Ref Frames Format settings, CABAC : Yes Format settings, Reference fra : 4 frames Codec ID : V_MPEG4/ISO/AVC Duration : 45 min 8 s Bit rate : 2 678 kb/s Width : 1 920 pixels Height : 1 080 pixels Display aspect ratio : 16:9 Frame rate mode : Constant Frame rate : 29.970 (29970/1000) FPS Original frame rate : 29.970 (30000/1001) FPS Color space : YUV Chroma subsampling : 4:2:0 Bit depth : 8 bits Scan type : Progressive Bits/(Pixel*Frame) : 0.043 Stream size : 865 MiB (93%) Default : Yes Forced : No Color range : Limited Color primaries : BT.709 Transfer characteristics : BT.709 Matrix coefficients : BT.709 Audio ID : 2 Format : AAC LC Format/Info : Advanced Audio Codec Low Complexity Codec ID : A_AAC-2 Duration : 45 min 8 s Bit rate : 192 kb/s Channel(s) : 2 channels Channel layout : L R Sampling rate : 48.0 kHz Frame rate : 46.875 FPS (1024 SPF) Compression mode : Lossy Stream size : 61.2 MiB (7%) Title : 日本語 [オリジナル] Language : Japanese Default : Yes Forced : No ```

File list