[MagicStar] Kawareta Otoko EP10 END [WEBDL] [1080p] [DMM-TV] [EP09_JPN_SUB]

Category:
Date:
2024-06-13 05:50 UTC
Submitter:
Seeders:
1
File size:
1003.7 MiB
Completed:
401
Info hash:
239f45bdbb956b2016f30045596efc485f515e25
HD 1080p from DMM TV. Episode.9 Japanese subtitles added. NOTE: XD… Everything is back to normal, all completed batches are being uploaded! ************** We are planning to upload all DMM TV Dramas and Movies, we need your Support! ************** Support Us Ali (Zhifubao / QR code): https://i.ibb.co/FWV2ggm/1660626347125.png PayPalMe: https://www.paypal.com/paypalme/sakuragikenji BTC (USDT): 19y5NF6voysif7PeJLv86Hf186ZS1i4rwu ETH: 0x807B4eec355Cfa65500BeE65A992a9a0d8432697 LTC: LUC2dTQkte7muv5oUUuRNJimLJvi9pgZUQ ************** ![alt text](https://i.ibb.co/TPRWGVp/Kawareta-otoko-1.jpg) ![alt text](https://i.ibb.co/jh1JfYS/Kawareta-Otoko-EP10-1080p-DMM-TV-WEB-DL-AAC2-0-H-264-Magic-Star-mkv.jpg) ``` General Unique ID : 227490366375307553792112586615942312363 (0xAB250D0590EF97A7EE2BA49571B471AB) Complete name : Kawareta.Otoko.EP10.1080p.DMM-TV.WEB-DL.AAC2.0.H.264-MagicStar.mkv Format : Matroska Format version : Version 4 File size : 1 004 MiB Duration : 23 min 25 s Overall bit rate : 5 992 kb/s Frame rate : 23.976 FPS Encoded date : 2024-06-13 01:25:14 UTC Writing application : mkvmerge v50.0.0 ('Awakenings') 64-bit Writing library : libebml v1.4.0 + libmatroska v1.6.2 Cover : Yes Attachments : cover.png Video ID : 1 Format : AVC Format/Info : Advanced Video Codec Format profile : High@L4 Format settings : CABAC / 4 Ref Frames Format settings, CABAC : Yes Format settings, Reference fra : 4 frames Codec ID : V_MPEG4/ISO/AVC Duration : 23 min 24 s Bit rate : 5 728 kb/s Width : 1 920 pixels Height : 1 080 pixels Display aspect ratio : 16:9 Frame rate mode : Constant Frame rate : 23.976 (24000/1001) FPS Color space : YUV Chroma subsampling : 4:2:0 Bit depth : 8 bits Scan type : Progressive Bits/(Pixel*Frame) : 0.115 Stream size : 959 MiB (96%) Writing library : x264 core 164 r3156 d46938d Encoding settings : cabac=1 / ref=4 / deblock=1:0:0 / analyse=0x3:0x131 / me=umh / subme=9 / psy=1 / psy_rd=1.00:0.00 / mixed_ref=1 / me_range=48 / chroma_me=1 / trellis=2 / 8x8dct=1 / cqm=0 / deadzone=21,11 / fast_pskip=1 / chroma_qp_offset=-2 / threads=8 / lookahead_threads=1 / sliced_threads=0 / nr=0 / decimate=1 / interlaced=0 / bluray_compat=0 / stitchable=1 / constrained_intra=0 / bframes=4 / b_pyramid=2 / b_adapt=1 / b_bias=0 / direct=3 / weightb=1 / open_gop=0 / weightp=2 / keyint=240 / keyint_min=48 / scenecut=0 / intra_refresh=0 / rc_lookahead=48 / rc=crf / mbtree=1 / crf=21.0 / qcomp=0.60 / qpmin=6 / qpmax=51 / qpstep=4 / vbv_maxrate=9600 / vbv_bufsize=9600 / crf_max=0.0 / nal_hrd=none / filler=0 / ip_ratio=1.40 / aq=3:1.30 Language : English Default : Yes Forced : No Color range : Limited Color primaries : BT.709 Transfer characteristics : BT.709 Matrix coefficients : BT.709 Audio ID : 2 Format : AAC LC Format/Info : Advanced Audio Codec Low Complexity Codec ID : A_AAC-2 Duration : 23 min 25 s Bit rate : 256 kb/s Channel(s) : 2 channels Channel layout : L R Sampling rate : 48.0 kHz Frame rate : 46.875 FPS (1024 SPF) Compression mode : Lossy Stream size : 42.9 MiB (4%) Title : 日本語 [オリジナル] Language : Japanese Default : Yes Forced : No ```

File list