[MagicStar] Tsuiraku JK to Haijin Kyoushi Season2 EP00 [WEBDL] [1080p] [HULU] [JPN_SUB]

Category:
Date:
2024-06-12 03:23 UTC
Submitter:
Seeders:
14
Information:
Leechers:
13
File size:
617.1 MiB
Completed:
572
Info hash:
4b24e0afed7f45b12d96fc789bd15ee2ca43be51
HD 1080p from HULU JAPAN. Japanese subtitles added. ************** Support Us Ali (Zhifubao / QR code): https://i.ibb.co/FWV2ggm/1660626347125.png PayPalMe: https://www.paypal.com/paypalme/sakuragikenji BTC (USDT): 19y5NF6voysif7PeJLv86Hf186ZS1i4rwu ETH: 0x807B4eec355Cfa65500BeE65A992a9a0d8432697 LTC: LUC2dTQkte7muv5oUUuRNJimLJvi9pgZUQ ************** ![alt text](https://i.ibb.co/JnfQV7k/25ddb6b3-8c5b-47cc-919b-cd4c41d36780b.jpg) ![alt text](https://i.ibb.co/51PbBrt/Tsuiraku-JK-to-Haijin-Kyoushi-S02-EP00-1080p-HULU-WEB-DL-AAC2-0-H-264-Magic-Star-mkv.jpg) ``` General Unique ID : 4822794358895767963641634349484591885 (0x3A0D61EC748B00FAABAF3881243CB0D) Complete name : Tsuiraku.JK.to.Haijin.Kyoushi.S02EP00.1080p.HULU.WEB-DL.AAC2.0.H.264-MagicStar.mkv Format : Matroska Format version : Version 4 File size : 617 MiB Duration : 24 min 0 s Overall bit rate : 3 595 kb/s Frame rate : 29.970 FPS Encoded date : 2024-06-12 03:10:54 UTC Writing application : mkvmerge v50.0.0 ('Awakenings') 64-bit Writing library : libebml v1.4.0 + libmatroska v1.6.2 Cover : Yes Attachments : cover.png Video ID : 1 Format : AVC Format/Info : Advanced Video Codec Format profile : High@L4 Format settings : CABAC / 4 Ref Frames Format settings, CABAC : Yes Format settings, Reference fra : 4 frames Codec ID : V_MPEG4/ISO/AVC Duration : 23 min 59 s Bit rate : 3 338 kb/s Width : 1 920 pixels Height : 1 080 pixels Display aspect ratio : 16:9 Frame rate mode : Constant Frame rate : 29.970 (29970/1000) FPS Original frame rate : 29.970 (30000/1001) FPS Color space : YUV Chroma subsampling : 4:2:0 Bit depth : 8 bits Scan type : Progressive Bits/(Pixel*Frame) : 0.054 Stream size : 573 MiB (93%) Default : Yes Forced : No Color range : Limited Color primaries : BT.709 Transfer characteristics : BT.709 Matrix coefficients : BT.709 Audio ID : 2 Format : AAC LC Format/Info : Advanced Audio Codec Low Complexity Codec ID : A_AAC-2 Duration : 24 min 0 s Bit rate : 253 kb/s Channel(s) : 2 channels Channel layout : L R Sampling rate : 48.0 kHz Frame rate : 46.875 FPS (1024 SPF) Compression mode : Lossy Stream size : 43.5 MiB (7%) Title : 日本語 [オリジナル] Language : Japanese Default : Yes Forced : No ```

File list