[MagicStar] City Hunter 2024 [WEBDL] [1080p] [Netflix] [JPN_ENG_CHS_CHT_SUB]

Category:
Date:
2024-06-12 02:25 UTC
Submitter:
Seeders:
7
File size:
4.0 GiB
Completed:
1032
Info hash:
b5331d893c771d2dfabfd130cd2c349ae778e062
HD 1080p from Netflix. Netflix Original Film. Japanese, English and Chinese subtitles added. NOTE: XD… Everything is back to normal, all completed batches are being uploaded! ************** Support Us Ali (Zhifubao / QR code): https://i.ibb.co/FWV2ggm/1660626347125.png PayPalMe: https://www.paypal.com/paypalme/sakuragikenji BTC (USDT): 19y5NF6voysif7PeJLv86Hf186ZS1i4rwu ETH: 0x807B4eec355Cfa65500BeE65A992a9a0d8432697 LTC: LUC2dTQkte7muv5oUUuRNJimLJvi9pgZUQ ************** ![alt text](https://i.ibb.co/WP0ndCF/City-hunter-2024.jpg) ![alt text](https://i.ibb.co/9rhtztQ/City-Hunter-2024-1080p-NF-WEB-DL-DDP5-1-Atmos-H-264-Magic-Star-mkv.jpg) ``` General Unique ID : 273154789040957436390259088344148221423 (0xCD7FB2E25F7439212E69870C763E1DEF) Complete name : City.Hunter.2024.1080p.NF.WEB-DL.DDP5.1.Atmos.H.264-MagicStar.mkv Format : Matroska Format version : Version 4 File size : 4.05 GiB Duration : 1 h 44 min Overall bit rate mode : Variable Overall bit rate : 5 566 kb/s Frame rate : 24.000 FPS Encoded date : 2024-06-10 03:52:07 UTC Writing application : mkvmerge v50.0.0 ('Awakenings') 64-bit Writing library : libebml v1.4.0 + libmatroska v1.6.2 Cover : Yes Attachments : cover.png Video ID : 1 Format : AVC Format/Info : Advanced Video Codec Format profile : Main@L4 Format settings : CABAC / 3 Ref Frames Format settings, CABAC : Yes Format settings, Reference fra : 3 frames Codec ID : V_MPEG4/ISO/AVC Duration : 1 h 44 min Bit rate mode : Variable Bit rate : 5 000 kb/s Maximum bit rate : 7 500 kb/s Width : 1 920 pixels Height : 1 080 pixels Display aspect ratio : 16:9 Frame rate mode : Constant Frame rate : 24.000 FPS Color space : YUV Chroma subsampling : 4:2:0 Bit depth : 8 bits Scan type : Progressive Bits/(Pixel*Frame) : 0.100 Stream size : 3.48 GiB (86%) Writing library : x264 core 148 r2727 7d026e8 Encoding settings : cabac=1 / ref=3 / deblock=1:0:0 / analyse=0x1:0x111 / me=umh / subme=10 / psy=1 / psy_rd=1.00:0.00 / mixed_ref=1 / me_range=24 / chroma_me=1 / trellis=2 / 8x8dct=0 / cqm=0 / deadzone=21,11 / fast_pskip=1 / chroma_qp_offset=-2 / threads=6 / lookahead_threads=1 / sliced_threads=0 / nr=0 / decimate=1 / interlaced=0 / bluray_compat=0 / stitchable=1 / constrained_intra=0 / bframes=2 / b_pyramid=0 / b_adapt=2 / b_bias=0 / direct=3 / weightb=1 / open_gop=0 / weightp=2 / keyint=240 / keyint_min=121 / scenecut=0 / intra_refresh=0 / rc_lookahead=48 / rc=2pass / mbtree=1 / bitrate=5000 / ratetol=1.0 / qcomp=0.50 / qpmin=6 / qpmax=51 / qpstep=4 / cplxblur=20.0 / qblur=0.5 / vbv_maxrate=7500 / vbv_bufsize=10000 / nal_hrd=vbr / filler=0 / ip_ratio=1.40 / aq=1:1.00 Default : Yes Forced : No Audio ID : 2 Format : E-AC-3 JOC Format/Info : Enhanced AC-3 with Joint Object Coding Commercial name : Dolby Digital Plus with Dolby Atmos Codec ID : A_EAC3 Duration : 1 h 44 min Bit rate mode : Constant Bit rate : 768 kb/s Channel(s) : 6 channels Channel layout : L R C LFE Ls Rs Sampling rate : 48.0 kHz Frame rate : 31.250 FPS (1536 SPF) Compression mode : Lossy Stream size : 572 MiB (14%) Title : 日本語 [オリジナル] Language : Japanese Service kind : Complete Main Default : Yes Forced : No ```

File list

  • [MagicStar] City Hunter 2024 [WEBDL] [1080p] [Netflix] [JPN_ENG_CHS_CHT_SUB]
    • City.Hunter.2024.1080p.NF.WEB-DL.DDP5.1.Atmos.H.264-MagicStar.Chs.srt (64.2 KiB)
    • City.Hunter.2024.1080p.NF.WEB-DL.DDP5.1.Atmos.H.264-MagicStar.Cht.srt (63.3 KiB)
    • City.Hunter.2024.1080p.NF.WEB-DL.DDP5.1.Atmos.H.264-MagicStar.Eng.srt (112.7 KiB)
    • City.Hunter.2024.1080p.NF.WEB-DL.DDP5.1.Atmos.H.264-MagicStar.Jpn.srt (101.3 KiB)
    • City.Hunter.2024.1080p.NF.WEB-DL.DDP5.1.Atmos.H.264-MagicStar.mkv (4.0 GiB)