[MagicStar] Unmet Aru Nou Gekai no Nikki EP09 [WEBDL] [1080p] [FOD] [JPN_SUB]

Category:
Date:
2024-06-12 01:31 UTC
Submitter:
Seeders:
8
Information:
Leechers:
9
File size:
2.0 GiB
Completed:
1250
Info hash:
5f85f527bfa15de8c4cfc4607acd26bf4596f180
HD 1080p from FOD. Japanese subtitles added. ************** Support Us Ali (Zhifubao / QR code): https://i.ibb.co/FWV2ggm/1660626347125.png PayPalMe: https://www.paypal.com/paypalme/sakuragikenji BTC (USDT): 19y5NF6voysif7PeJLv86Hf186ZS1i4rwu ETH: 0x807B4eec355Cfa65500BeE65A992a9a0d8432697 LTC: LUC2dTQkte7muv5oUUuRNJimLJvi9pgZUQ ************** ![alt text](https://i.ibb.co/n0rFmNL/90ph-a.jpg) ![alt text](https://i.ibb.co/yQj4sHV/Unmet-Aru-Nou-Gekai-no-Nikki-EP09-1080p-FOD-WEB-DL-AAC2-0-H-264-Magic-Star-mkv.jpg) ``` General Unique ID : 150624939860175280082523909809120348322 (0x71514EE682E6BE2D05248C2E5EFE08A2) Complete name : Unmet.Aru.Nou.Gekai.no.Nikki.EP09.1080p.FOD.WEB-DL.AAC2.0.H.264-MagicStar.mkv Format : Matroska Format version : Version 4 File size : 1.98 GiB Duration : 45 min 49 s Overall bit rate mode : Variable Overall bit rate : 6 171 kb/s Frame rate : 29.970 FPS Encoded date : 2024-06-11 11:07:05 UTC Writing application : mkvmerge v50.0.0 ('Awakenings') 64-bit Writing library : libebml v1.4.0 + libmatroska v1.6.2 Video ID : 1 Format : AVC Format/Info : Advanced Video Codec Format profile : High@L4.1 Format settings : CABAC / 2 Ref Frames Format settings, CABAC : Yes Format settings, Reference fra : 2 frames Codec ID : V_MPEG4/ISO/AVC Duration : 45 min 49 s Bit rate mode : Variable Bit rate : 5 976 kb/s Maximum bit rate : 15.0 Mb/s Width : 1 920 pixels Height : 1 080 pixels Display aspect ratio : 16:9 Frame rate mode : Constant Frame rate : 29.970 (29970/1000) FPS Original frame rate : 29.970 (30000/1001) FPS Color space : YUV Chroma subsampling : 4:2:0 Bit depth : 8 bits Scan type : Progressive Bits/(Pixel*Frame) : 0.096 Stream size : 1.91 GiB (97%) Default : Yes Forced : No Color range : Limited Color primaries : BT.709 Transfer characteristics : BT.709 Matrix coefficients : BT.709 Audio ID : 2 Format : AAC LC Format/Info : Advanced Audio Codec Low Complexity Codec ID : A_AAC-2 Duration : 45 min 49 s Bit rate : 192 kb/s Channel(s) : 2 channels Channel layout : L R Sampling rate : 48.0 kHz Frame rate : 46.875 FPS (1024 SPF) Compression mode : Lossy Stream size : 62.9 MiB (3%) Title : 日本語 [オリジナル] Language : Japanese Default : Yes Forced : No ```

File list