[MagicStar] 366 Days EP10 [WEBDL] [1080p] [FOD] [JPN_SUB]

Category:
Date:
2024-06-12 01:30 UTC
Submitter:
Seeders:
5
Information:
Leechers:
0
File size:
1.1 GiB
Completed:
878
Info hash:
ab224d501c9709950369f20459191f13d9f6624c
HD 1080p from FOD. Japanese subtitles added. ************** Support Us Ali (Zhifubao / QR code): https://i.ibb.co/FWV2ggm/1660626347125.png PayPalMe: https://www.paypal.com/paypalme/sakuragikenji BTC (USDT): 19y5NF6voysif7PeJLv86Hf186ZS1i4rwu ETH: 0x807B4eec355Cfa65500BeE65A992a9a0d8432697 LTC: LUC2dTQkte7muv5oUUuRNJimLJvi9pgZUQ ************** ![alt text](https://i.ibb.co/Z6NCKQt/dedb5cb2549b1292a6f809ba4d2a1c0bc198766b2969feaaa34f24f0730ed2e4.jpg) ![alt text](https://i.ibb.co/tBhqkN0/366-Days-EP10-1080p-FOD-WEB-DL-AAC2-0-H-264-Magic-Star-mkv.jpg) ``` General Unique ID : 258673102815512566347909380718558435754 (0xC29AA0A0B1A7FE09279C29D8398FD9AA) Complete name : 366.Days.EP10.1080p.FOD.WEB-DL.AAC2.0.H.264-MagicStar.mkv Format : Matroska Format version : Version 4 File size : 1.09 GiB Duration : 46 min 7 s Overall bit rate mode : Variable Overall bit rate : 3 369 kb/s Frame rate : 29.970 FPS Encoded date : 2024-06-11 11:04:46 UTC Writing application : mkvmerge v50.0.0 ('Awakenings') 64-bit Writing library : libebml v1.4.0 + libmatroska v1.6.2 Video ID : 1 Format : AVC Format/Info : Advanced Video Codec Format profile : High@L4.1 Format settings : CABAC / 2 Ref Frames Format settings, CABAC : Yes Format settings, Reference fra : 2 frames Codec ID : V_MPEG4/ISO/AVC Duration : 46 min 7 s Bit rate mode : Variable Bit rate : 3 175 kb/s Maximum bit rate : 15.0 Mb/s Width : 1 920 pixels Height : 1 080 pixels Display aspect ratio : 16:9 Frame rate mode : Constant Frame rate : 29.970 (29970/1000) FPS Original frame rate : 29.970 (30000/1001) FPS Color space : YUV Chroma subsampling : 4:2:0 Bit depth : 8 bits Scan type : Progressive Bits/(Pixel*Frame) : 0.051 Stream size : 1.02 GiB (94%) Default : Yes Forced : No Audio ID : 2 Format : AAC LC Format/Info : Advanced Audio Codec Low Complexity Codec ID : A_AAC-2 Duration : 46 min 7 s Bit rate : 192 kb/s Channel(s) : 2 channels Channel layout : L R Sampling rate : 48.0 kHz Frame rate : 46.875 FPS (1024 SPF) Compression mode : Lossy Stream size : 63.4 MiB (6%) Title : 日本語 [オリジナル] Language : Japanese Default : Yes Forced : No ```

File list