[MagicStar] Kaibutsu no Kikori 2023 [WEBDL] [1080p] [AMZN] [JPN_ENG_CHS_CHT_SUB]

Category:
Date:
2024-06-08 23:33 UTC
Submitter:
Seeders:
8
File size:
5.0 GiB
Completed:
834
Info hash:
17d4f131696f5547e664972cedf3f12754872e41
HD 1080p from Prime Video. Use CBR bitrate mode. Japanese, English and Chinese subtitles added. ************** We are planning to upload all Prime Video Japan Dramas and Movies, we need your Support! ************** Support Us Ali (Zhifubao / QR code): https://i.ibb.co/FWV2ggm/1660626347125.png PayPalMe: https://www.paypal.com/paypalme/sakuragikenji BTC (USDT): 19y5NF6voysif7PeJLv86Hf186ZS1i4rwu ETH: 0x807B4eec355Cfa65500BeE65A992a9a0d8432697 LTC: LUC2dTQkte7muv5oUUuRNJimLJvi9pgZUQ ************** ![alt text](https://i.ibb.co/ZxGVgkP/9160-RXUIed-L.jpg) ![alt text](https://i.ibb.co/sJVFk5m/Kaibutsu-no-Kikori-2023-1080p-AMZN-WEB-DL-DDP5-1-H-264-Magic-Star-mkv.jpg) ``` General Unique ID : 237900297742786467036395272590448971448 (0xB2F9EE43ACF1C6E2F1B133695118CEB8) Complete name : Kaibutsu.no.Kikori.2023.1080p.AMZN.WEB-DL.DDP5.1.H.264-MagicStar.mkv Format : Matroska Format version : Version 4 File size : 5.02 GiB Duration : 1 h 58 min Overall bit rate mode : Constant Overall bit rate : 6 055 kb/s Frame rate : 23.976 FPS Encoded date : 2024-06-08 22:08:57 UTC Writing application : mkvmerge v50.0.0 ('Awakenings') 64-bit Writing library : libebml v1.4.0 + libmatroska v1.6.2 Cover : Yes Attachments : cover.jpg Video ID : 1 Format : AVC Format/Info : Advanced Video Codec Format profile : High@L4 Format settings : CABAC / 4 Ref Frames Format settings, CABAC : Yes Format settings, Reference fra : 4 frames Codec ID : V_MPEG4/ISO/AVC Duration : 1 h 58 min Bit rate mode : Constant Bit rate : 5 412 kb/s Nominal bit rate : 10 000 kb/s Width : 1 920 pixels Height : 800 pixels Display aspect ratio : 2.40:1 Frame rate mode : Constant Frame rate : 23.976 (24000/1001) FPS Color space : YUV Chroma subsampling : 4:2:0 Bit depth : 8 bits Scan type : Progressive Bits/(Pixel*Frame) : 0.147 Stream size : 4.48 GiB (89%) Default : Yes Forced : No Color range : Limited Color primaries : BT.709 Transfer characteristics : BT.709 Matrix coefficients : BT.709 Audio ID : 2 Format : E-AC-3 Format/Info : Enhanced AC-3 Commercial name : Dolby Digital Plus Codec ID : A_EAC3 Duration : 1 h 58 min Bit rate mode : Constant Bit rate : 640 kb/s Channel(s) : 6 channels Channel layout : L R C LFE Ls Rs Sampling rate : 48.0 kHz Frame rate : 31.250 FPS (1536 SPF) Compression mode : Lossy Stream size : 543 MiB (11%) Title : 日本語 [オリジナル] Language : Japanese Service kind : Complete Main Default : Yes Forced : No ```

File list

  • [MagicStar] Kaibutsu no Kikori 2023 [WEBDL] [1080p] [AMZN] [JPN_ENG_CHS_CHT_SUB]
    • Kaibutsu.no.Kikori.2023.1080p.AMZN.WEB-DL.DDP5.1.H.264-MagicStar.Chs.srt (76.0 KiB)
    • Kaibutsu.no.Kikori.2023.1080p.AMZN.WEB-DL.DDP5.1.H.264-MagicStar.Cht.srt (85.8 KiB)
    • Kaibutsu.no.Kikori.2023.1080p.AMZN.WEB-DL.DDP5.1.H.264-MagicStar.Eng.srt (80.4 KiB)
    • Kaibutsu.no.Kikori.2023.1080p.AMZN.WEB-DL.DDP5.1.H.264-MagicStar.Jpn.srt (115.3 KiB)
    • Kaibutsu.no.Kikori.2023.1080p.AMZN.WEB-DL.DDP5.1.H.264-MagicStar.mkv (5.0 GiB)
Thank you! Great.