[LostYears] KonoSuba - God’s blessing on this wonderful world! - S03E06 (29) (WEB 1080p x264 AAC E-AC-3) [Dual-Audio] | Kono Subarashii Sekai ni Shukufuku wo! 3 | この素晴らしい世界に祝福を! 3

Category:
Date:
2024-05-29 19:45 UTC
Submitter:
Seeders:
201
Information:
Leechers:
1
File size:
1.4 GiB
Completed:
2184
Info hash:
5fa4b6a140702663e4dbf776ab8492e540e171cd
![](https://iili.io/JZxqgkP.png) A dual-audio remux of [Chihiro's](https://nyaa.si/view/1822029) subtitles and fixed chapters with Crunchyroll video and English audio, Amazon Japanese audio and an accompanying signs & songs subtitle track. ``` General Unique ID : 256153493195419816721493842482089602504 (0xC0B55E4848592B9BB53EAE398196ADC8) Complete name : [LostYears] KonoSuba - God’s blessing on this wonderful world! - S03E06 (WEB 1080p x264 AAC E-AC-3) [F218E121].mkv Format : Matroska Format version : Version 4 File size : 1.44 GiB Duration : 23 min 41 s Overall bit rate : 8 673 kb/s Frame rate : 23.976 FPS Movie name : S03E06 (29) - A Farewell to This Lavish Lifestyle! Attachments : Balloon.ttf / Barmeno-Medium.ttf / BorisBlackBloxx.ttf / KGHeartDoodles.ttf / NozakiDialogue-Bold.otf / NozakiDialogue-BoldItalic.otf / Pen of Truth.ttf / Pixel Font-7.otf ``` ``` Video ID : 1 Format : AVC Format/Info : Advanced Video Codec Format profile : High@L4 Format settings : CABAC / 4 Ref Frames Format settings, CABAC : Yes Format settings, Reference frames : 4 frames Codec ID : V_MPEG4/ISO/AVC Duration : 23 min 40 s Bit rate : 8 000 kb/s Width : 1 920 pixels Height : 1 080 pixels Display aspect ratio : 16:9 Frame rate mode : Constant Frame rate : 23.976 (24000/1001) FPS Color space : YUV Chroma subsampling : 4:2:0 Bit depth : 8 bits Scan type : Progressive Bits/(Pixel*Frame) : 0.161 Stream size : 1.32 GiB (92%) Title : CR WEB-DL 1080p x264 @ 8000 kb/s Writing library : x264 core 164 Encoding settings : cabac=1 / ref=4 / deblock=1:1:1 / analyse=0x3:0x113 / me=hex / subme=8 / psy=1 / psy_rd=0.40:0.00 / mixed_ref=1 / me_range=16 / chroma_me=1 / trellis=2 / 8x8dct=1 / cqm=0 / deadzone=21,11 / fast_pskip=1 / chroma_qp_offset=-2 / threads=12 / lookahead_threads=2 / sliced_threads=0 / nr=0 / decimate=1 / interlaced=0 / bluray_compat=0 / constrained_intra=0 / bframes=0 / weightp=2 / keyint=96 / keyint_min=48 / scenecut=40 / intra_refresh=0 / rc_lookahead=48 / rc=2pass / mbtree=1 / bitrate=8000 / ratetol=1.0 / qcomp=0.60 / qpmin=0 / qpmax=69 / qpstep=4 / cplxblur=20.0 / qblur=0.5 / vbv_maxrate=12000 / vbv_bufsize=18000 / nal_hrd=none / filler=0 / ip_ratio=1.40 / aq=1:0.60 Default : Yes Forced : No ``` ``` Audio #1 ID : 2 Format : E-AC-3 Format/Info : Enhanced AC-3 Commercial name : Dolby Digital Plus Codec ID : A_EAC3 Duration : 23 min 40 s Bit rate mode : Constant Bit rate : 224 kb/s Channel(s) : 2 channels Channel layout : L R Sampling rate : 48.0 kHz Frame rate : 31.250 FPS (1536 SPF) Compression mode : Lossy Delay relative to video : 42 ms Stream size : 37.9 MiB (3%) Title : Japanese 2.0 E-AC-3 @ 224 kb/s Language : Japanese Service kind : Complete Main Default : Yes Forced : No Dialog Normalization : -31 dB compr : -0.28 dB dsurmod : Not Dolby Surround encoded dialnorm_Average : -31 dB dialnorm_Minimum : -31 dB dialnorm_Maximum : -31 dB Audio #2 ID : 3 Format : AAC LC Format/Info : Advanced Audio Codec Low Complexity Codec ID : A_AAC-2 Duration : 23 min 40 s Bit rate : 128 kb/s Channel(s) : 2 channels Channel layout : L R Sampling rate : 44.1 kHz Frame rate : 43.066 FPS (1024 SPF) Compression mode : Lossy Stream size : 21.7 MiB (1%) Title : English 2.0 AAC @ 128 kb/s Language : English Default : Yes Forced : No ``` ``` Text #1 ID : 4 Format : ASS Codec ID : S_TEXT/ASS Codec ID/Info : Advanced Sub Station Alpha Duration : 23 min 40 s Bit rate : 168 kb/s Frame rate : 3.415 FPS Count of elements : 4851 Compression mode : Lossless Stream size : 28.5 MiB (2%) Title : Full Subtitles [Chihiro] Language : English Default : Yes Forced : No Text #2 ID : 5 Format : ASS Codec ID : S_TEXT/ASS Codec ID/Info : Advanced Sub Station Alpha Duration : 23 min 24 s Bit rate : 170 kb/s Frame rate : 3.177 FPS Count of elements : 4461 Compression mode : Lossless Stream size : 28.4 MiB (2%) Title : Signs & Songs [Chihiro] Language : English Default : No Forced : Yes ``` ``` Menu 00:00:00.000 : Part A 00:08:43.190 : Part B 00:21:27.203 : Ending 00:22:57.084 : Epilogue 00:23:30.117 : Preview ``` [Next Episode](https://nyaa.si/view/1829458) | [Previous Episode](https://nyaa.si/view/1826139) | [LostYears Discord](https://discord.gg/F43jMEjzwR)

File list

  • [LostYears] KonoSuba - God’s blessing on this wonderful world! - S03E06 (WEB 1080p x264 AAC E-AC-3) [F218E121].mkv (1.4 GiB)

LostYears (uploader)

User
kazuma has gone full cid mode, mega eminence in shadow vibes with this one. who let him get a hidive subscription?? no worries, megumin gets just how _cool_ shadowcore is.