[MagicStar] Tokusou 9 Season7 EP09 [WEBDL] [1080p] [JPN_SUB]

Category:
Date:
2024-05-29 13:43 UTC
Submitter:
Seeders:
3
Information:
Leechers:
0
File size:
921.7 MiB
Completed:
591
Info hash:
452925499d0f751b1aa4c97bcbe7093b1c7f56d4
HD 1080p from TVer. Japanese subtitles added. ![alt text](https://i.ibb.co/n32g1Ft/d5a5cd3b-73d0-4fbd-b32e-62ebdc286d10.jpg) ![alt text](https://i.ibb.co/KV0TtPX/Magic-Star-Tokusou-9-Season7-EP09-WEBDL-1080p-mkv.jpg) ``` General Unique ID : 186603008894194770985403291802631872873 (0x8C626EA8363A1A1F88B6006EDBB72169) Complete name : [MagicStar] Tokusou 9 Season7 EP09 [WEBDL] [1080p].mkv Format : Matroska Format version : Version 4 File size : 922 MiB Duration : 44 min 58 s Overall bit rate : 2 866 kb/s Frame rate : 29.970 FPS Encoded date : 2024-05-29 13:36:54 UTC Writing application : mkvmerge v50.0.0 ('Awakenings') 64-bit Writing library : libebml v1.4.0 + libmatroska v1.6.2 Video ID : 1 Format : AVC Format/Info : Advanced Video Codec Format profile : High@L4 Format settings : CABAC / 4 Ref Frames Format settings, CABAC : Yes Format settings, Reference fra : 4 frames Codec ID : V_MPEG4/ISO/AVC Duration : 44 min 57 s Bit rate : 2 671 kb/s Width : 1 920 pixels Height : 1 080 pixels Display aspect ratio : 16:9 Frame rate mode : Constant Frame rate : 29.970 (29970/1000) FPS Original frame rate : 29.970 (30000/1001) FPS Color space : YUV Chroma subsampling : 4:2:0 Bit depth : 8 bits Scan type : Progressive Bits/(Pixel*Frame) : 0.043 Stream size : 859 MiB (93%) Default : Yes Forced : No Color range : Limited Matrix coefficients : BT.709 Audio ID : 2 Format : AAC LC Format/Info : Advanced Audio Codec Low Complexity Codec ID : A_AAC-2 Duration : 44 min 58 s Bit rate : 192 kb/s Channel(s) : 2 channels Channel layout : L R Sampling rate : 48.0 kHz Frame rate : 46.875 FPS (1024 SPF) Compression mode : Lossy Stream size : 61.7 MiB (7%) Title : 日本語 [オリジナル] Language : Japanese Default : Yes Forced : No ```

File list