[MagicStar] ACMA:GAME EP08.5 [WEBDL] [1080p]

Category:
Date:
2024-05-29 07:54 UTC
Submitter:
Seeders:
2
Information:
Leechers:
1
File size:
122.1 MiB
Completed:
814
Info hash:
0a94011b0a794741f95dd4b27737a37749c3f98f
HD 1080p from TVer. ![alt text](https://i.ibb.co/BykWQfh/66512cd4-eaef-4236-a820-260e1933375db.jpg) ![alt text](https://i.ibb.co/BzZ1ycQ/Magic-Star-ACMA-GAME-EP08-5-WEBDL-1080p-mkv.jpg) ``` General Unique ID : 237515487192182618985862961041697699648 (0xB2AFD1A3AFDC6B031E4931957D687740) Complete name : [MagicStar] ACMA:GAME EP08.5 [WEBDL] [1080p].mkv Format : Matroska Format version : Version 4 File size : 122 MiB Duration : 5 min 55 s Overall bit rate : 2 885 kb/s Frame rate : 29.970 FPS Encoded date : 2024-05-28 20:33:49 UTC Writing application : mkvmerge v50.0.0 ('Awakenings') 64-bit Writing library : libebml v1.4.0 + libmatroska v1.6.2 Video ID : 1 Format : AVC Format/Info : Advanced Video Codec Format profile : High@L4 Format settings : CABAC / 4 Ref Frames Format settings, CABAC : Yes Format settings, Reference fra : 4 frames Codec ID : V_MPEG4/ISO/AVC Duration : 5 min 55 s Bit rate : 2 691 kb/s Width : 1 920 pixels Height : 1 080 pixels Display aspect ratio : 16:9 Frame rate mode : Constant Frame rate : 29.970 (29970/1000) FPS Original frame rate : 29.970 (30000/1001) FPS Color space : YUV Chroma subsampling : 4:2:0 Bit depth : 8 bits Scan type : Progressive Bits/(Pixel*Frame) : 0.043 Stream size : 114 MiB (93%) Default : Yes Forced : No Color range : Limited Color primaries : BT.709 Transfer characteristics : BT.709 Matrix coefficients : BT.709 Audio ID : 2 Format : AAC LC Format/Info : Advanced Audio Codec Low Complexity Codec ID : A_AAC-2 Duration : 5 min 55 s Bit rate : 192 kb/s Channel(s) : 2 channels Channel layout : L R Sampling rate : 48.0 kHz Frame rate : 46.875 FPS (1024 SPF) Compression mode : Lossy Stream size : 8.10 MiB (7%) Title : 日本語 [オリジナル] Language : Japanese Default : Yes Forced : No ```

File list