[MagicStar] Oi Handsome!! Season2 EP08 END [WEBDL] [1080p] [FOD] [JPN_SUB]

Category:
Date:
2024-05-29 07:53 UTC
Submitter:
Seeders:
2
Information:
Leechers:
1
File size:
1.7 GiB
Completed:
847
Info hash:
a36170b78a40fa4b75c2098f1b7ea6f9ee50db31
HD 1080p from FOD. Japanese subtitles added. ************** Support Us Ali (Zhifubao / QR code): https://i.ibb.co/FWV2ggm/1660626347125.png PayPalMe: https://www.paypal.com/paypalme/sakuragikenji BTC (USDT): 19y5NF6voysif7PeJLv86Hf186ZS1i4rwu ETH: 0x807B4eec355Cfa65500BeE65A992a9a0d8432697 LTC: LUC2dTQkte7muv5oUUuRNJimLJvi9pgZUQ ************** ![alt text](https://i.ibb.co/TYk6Mg1/317w-a.jpg) ![alt text](https://i.ibb.co/yQ4Lc9M/Oi-Handsome-S02-EP08-1080p-FOD-WEB-DL-AAC2-0-H-264-Magic-Star-mkv.jpg) ``` General Unique ID : 111267325355937139106343915419029426331 (0x53B54EB007651C5CC046B20CD14F509B) Complete name : Oi.Handsome.S02EP08.1080p.FOD.WEB-DL.AAC2.0.H.264-MagicStar.mkv Format : Matroska Format version : Version 4 File size : 1.70 GiB Duration : 43 min 28 s Overall bit rate mode : Variable Overall bit rate : 5 593 kb/s Frame rate : 29.970 FPS Encoded date : 2024-05-27 19:25:23 UTC Writing application : mkvmerge v50.0.0 ('Awakenings') 64-bit Writing library : libebml v1.4.0 + libmatroska v1.6.2 Video ID : 1 Format : AVC Format/Info : Advanced Video Codec Format profile : High@L4.1 Format settings : CABAC / 2 Ref Frames Format settings, CABAC : Yes Format settings, Reference fra : 2 frames Codec ID : V_MPEG4/ISO/AVC Duration : 43 min 28 s Bit rate mode : Variable Bit rate : 5 398 kb/s Maximum bit rate : 15.0 Mb/s Width : 1 920 pixels Height : 1 080 pixels Display aspect ratio : 16:9 Frame rate mode : Constant Frame rate : 29.970 (29970/1000) FPS Original frame rate : 29.970 (30000/1001) FPS Color space : YUV Chroma subsampling : 4:2:0 Bit depth : 8 bits Scan type : Progressive Bits/(Pixel*Frame) : 0.087 Stream size : 1.64 GiB (97%) Default : Yes Forced : No Color range : Limited Color primaries : BT.709 Transfer characteristics : BT.709 Matrix coefficients : BT.709 Audio ID : 2 Format : AAC LC Format/Info : Advanced Audio Codec Low Complexity Codec ID : A_AAC-2 Duration : 43 min 28 s Bit rate : 192 kb/s Channel(s) : 2 channels Channel layout : L R Sampling rate : 48.0 kHz Frame rate : 46.875 FPS (1024 SPF) Compression mode : Lossy Stream size : 59.7 MiB (3%) Title : 日本語 [オリジナル] Language : Japanese Default : Yes Forced : No ```

File list