[MagicStar] Hanasaki Mai ga Damattenai 2024 EP07 [WEBDL] [1080p] [HULU] [JPN_SUB]

Category:
Date:
2024-05-29 07:53 UTC
Submitter:
Seeders:
7
Information:
Leechers:
2
File size:
1.6 GiB
Completed:
1494
Info hash:
98a9488e78f65dfe5a3d66f4c9310c8472a63753
HD 1080p from HULU JAPAN. Japanese subtitles added. ************** Support Us Ali (Zhifubao / QR code): https://i.ibb.co/FWV2ggm/1660626347125.png PayPalMe: https://www.paypal.com/paypalme/sakuragikenji BTC (USDT): 19y5NF6voysif7PeJLv86Hf186ZS1i4rwu ETH: 0x807B4eec355Cfa65500BeE65A992a9a0d8432697 LTC: LUC2dTQkte7muv5oUUuRNJimLJvi9pgZUQ ************** ![alt text](https://i.ibb.co/3cSm2hN/c0a5a70f-35ca-4965-bda9-589766ae61fbb.jpg) ![alt text](https://i.ibb.co/Dwd9HJR/Hanasaki-Mai-ga-Damattenai-2024-EP07-1080p-HULU-WEB-DL-DDP2-0-H-264-Magic-Star-mkv.jpg) ``` General Unique ID : 122218067397577986689027526625586759303 (0x5BF257F4817FC7AD3FB32B71555AC687) Complete name : Hanasaki.Mai.ga.Damattenai.2024.EP07.1080p.HULU.WEB-DL.DDP2.0.H.264-MagicStar.mkv Format : Matroska Format version : Version 4 File size : 1.61 GiB Duration : 44 min 58 s Overall bit rate : 5 128 kb/s Frame rate : 29.970 FPS Encoded date : 2024-05-27 05:46:12 UTC Writing application : mkvmerge v50.0.0 ('Awakenings') 64-bit Writing library : libebml v1.4.0 + libmatroska v1.6.2 Cover : Yes Attachments : cover.png Video ID : 1 Format : AVC Format/Info : Advanced Video Codec Format profile : High@L4 Format settings : CABAC / 4 Ref Frames Format settings, CABAC : Yes Format settings, Reference fra : 4 frames Codec ID : V_MPEG4/ISO/AVC Duration : 44 min 57 s Bit rate : 4 872 kb/s Width : 1 920 pixels Height : 1 080 pixels Display aspect ratio : 16:9 Frame rate mode : Constant Frame rate : 29.970 (29970/1000) FPS Original frame rate : 29.970 (30000/1001) FPS Color space : YUV Chroma subsampling : 4:2:0 Bit depth : 8 bits Scan type : Progressive Bits/(Pixel*Frame) : 0.078 Stream size : 1.53 GiB (95%) Default : Yes Forced : No Color range : Limited Color primaries : BT.709 Transfer characteristics : BT.709 Matrix coefficients : BT.709 Audio ID : 2 Format : AAC LC Format/Info : Advanced Audio Codec Low Complexity Codec ID : A_AAC-2 Duration : 44 min 58 s Bit rate : 253 kb/s Channel(s) : 2 channels Channel layout : L R Sampling rate : 48.0 kHz Frame rate : 46.875 FPS (1024 SPF) Compression mode : Lossy Stream size : 81.5 MiB (5%) Title : 日本語 [オリジナル] Language : Japanese Default : Yes Forced : No ```

File list