[MagicStar] Yips EP07 [WEBDL] [1080p] [FOD] [JPN_SUB]

Category:
Date:
2024-05-29 07:46 UTC
Submitter:
Seeders:
6
Information:
Leechers:
0
File size:
2.0 GiB
Completed:
1211
Info hash:
43275ebe05ba31a8b66ef2c3b76b17c0bd1fcc0d
HD 1080p from FOD. Japanese subtitles added. ************** Support Us Ali (Zhifubao / QR code): https://i.ibb.co/FWV2ggm/1660626347125.png PayPalMe: https://www.paypal.com/paypalme/sakuragikenji BTC (USDT): 19y5NF6voysif7PeJLv86Hf186ZS1i4rwu ETH: 0x807B4eec355Cfa65500BeE65A992a9a0d8432697 LTC: LUC2dTQkte7muv5oUUuRNJimLJvi9pgZUQ ************** ![alt text](https://i.ibb.co/1Mx7hBQ/07354dd2d85e7f4e81ed587fe579b0461504e9b230e8a27788d1887dbfd44039.jpg) ![alt text](https://i.ibb.co/XbwrY10/Yips-EP07-1080p-FOD-WEB-DL-AAC2-0-H-264-Magic-Star-mkv.jpg) ``` General Unique ID : 125377975071933965357079280401791346254 (0x5E52EB6E8F74924F403AC7277700664E) Complete name : Yips.EP07.1080p.FOD.WEB-DL.AAC2.0.H.264-MagicStar.mkv Format : Matroska Format version : Version 4 File size : 1.96 GiB Duration : 48 min 11 s Overall bit rate mode : Variable Overall bit rate : 5 832 kb/s Frame rate : 29.970 FPS Encoded date : 2024-05-27 05:12:38 UTC Writing application : mkvmerge v50.0.0 ('Awakenings') 64-bit Writing library : libebml v1.4.0 + libmatroska v1.6.2 Video ID : 1 Format : AVC Format/Info : Advanced Video Codec Format profile : High@L4.1 Format settings : CABAC / 2 Ref Frames Format settings, CABAC : Yes Format settings, Reference fra : 2 frames Codec ID : V_MPEG4/ISO/AVC Duration : 48 min 11 s Bit rate mode : Variable Bit rate : 5 638 kb/s Maximum bit rate : 15.0 Mb/s Width : 1 920 pixels Height : 1 080 pixels Display aspect ratio : 16:9 Frame rate mode : Constant Frame rate : 29.970 (29970/1000) FPS Original frame rate : 29.970 (30000/1001) FPS Color space : YUV Chroma subsampling : 4:2:0 Bit depth : 8 bits Scan type : Progressive Bits/(Pixel*Frame) : 0.091 Stream size : 1.90 GiB (97%) Default : Yes Forced : No Audio ID : 2 Format : AAC LC Format/Info : Advanced Audio Codec Low Complexity Codec ID : A_AAC-2 Duration : 48 min 11 s Bit rate : 192 kb/s Channel(s) : 2 channels Channel layout : L R Sampling rate : 48.0 kHz Frame rate : 46.875 FPS (1024 SPF) Compression mode : Lossy Stream size : 66.2 MiB (3%) Title : 日本語 [オリジナル] Language : Japanese Default : Yes Forced : No ```

File list