The.First.Slam.Dunk.2022.MULTi.1080p.BluRay.x264-SHiNiGAMi (VOSTFR, VF)

Category:
Date:
2024-05-27 22:04 UTC
Submitter:
Anonymous
Seeders:
14
Information:
No information.
Leechers:
3
File size:
9.8 GiB
Completed:
284
Info hash:
6487eeb6a6763a3d4a3b5aa40400bc4af1c9205e
Plus d’infos : https://www.nautiljon.com/animes/the+first+slam+dunk.html Lien de téléchargement : https://1fichier.com/?6zvljz3a5897oekw4a3w&af=5010551 NFO : General Unique ID : 303686851277613498584685501597378668013 (0xE477F5C670F48C855A99CA2B6117E5ED) Complete name : The.First.Slam.Dunk.2022.MULTi.1080p.BluRay.x264-SHiNiGAMi.mkv Format : Matroska Format version : Version 4 File size : 9.82 GiB Duration : 2 h 4 min Overall bit rate : 11.3 Mb/s Frame rate : 24.000 FPS Encoded date : 2024-05-08 17:05:30 UTC Writing application : mkvmerge v83.0 ('Circle Of Friends') 64-bit Writing library : libebml v1.4.5 + libmatroska v1.7.1 Video ID : 1 Format : AVC Format/Info : Advanced Video Codec Format profile : High@L4.1 Format settings : CABAC / 4 Ref Frames Format settings, CABAC : Yes Format settings, Reference frames : 4 frames Codec ID : V_MPEG4/ISO/AVC Duration : 2 h 4 min Bit rate : 8 640 kb/s Width : 1 920 pixels Height : 1 080 pixels Display aspect ratio : 16:9 Frame rate mode : Constant Frame rate : 24.000 FPS Color space : YUV Chroma subsampling : 4:2:0 Bit depth : 8 bits Scan type : Progressive Bits/(Pixel*Frame) : 0.174 Stream size : 7.49 GiB (76%) Title : The First Slam Dunk - 2022 - 1080p - MULTi - SHiNiGAMi Writing library : x264 core 164 r3190 7ed753b Encoding settings : cabac=1 / ref=4 / deblock=1:0:0 / analyse=0x3:0x133 / me=umh / subme=8 / psy=1 / psy_rd=1.00:0.00 / mixed_ref=1 / me_range=24 / chroma_me=1 / trellis=1 / 8x8dct=1 / cqm=0 / deadzone=21,11 / fast_pskip=1 / chroma_qp_offset=-2 / threads=34 / lookahead_threads=5 / sliced_threads=0 / nr=0 / decimate=1 / interlaced=0 / bluray_compat=0 / constrained_intra=0 / bframes=3 / b_pyramid=2 / b_adapt=1 / b_bias=0 / direct=3 / weightb=1 / open_gop=0 / weightp=2 / keyint=240 / keyint_min=23 / scenecut=40 / intra_refresh=0 / rc_lookahead=45 / rc=2pass / mbtree=1 / bitrate=8640 / ratetol=1.0 / qcomp=0.60 / qpmin=0 / qpmax=69 / qpstep=4 / cplxblur=20.0 / qblur=0.5 / vbv_maxrate=62500 / vbv_bufsize=78125 / nal_hrd=none / filler=0 / ip_ratio=1.40 / aq=1:1.00 Default : Yes Forced : No Audio #1 ID : 2 Format : DTS Format/Info : Digital Theater Systems Codec ID : A_DTS Duration : 2 h 4 min Bit rate mode : Constant Bit rate : 1 344 kb/s Channel(s) : 6 channels Channel layout : C L R Ls Rs LFE Sampling rate : 48.0 kHz Frame rate : 93.750 FPS (512 SPF) Bit depth : 16 bits Compression mode : Lossy Stream size : 1.17 GiB (12%) Title : FR-DTS 5.1 Language : French Default : Yes Forced : No Audio #2 ID : 3 Format : DTS Format/Info : Digital Theater Systems Codec ID : A_DTS Duration : 2 h 4 min Bit rate mode : Constant Bit rate : 1 344 kb/s Channel(s) : 6 channels Channel layout : C L R Ls Rs LFE Sampling rate : 48.0 kHz Frame rate : 93.750 FPS (512 SPF) Bit depth : 16 bits Compression mode : Lossy Stream size : 1.17 GiB (12%) Title : JAP-DTS 5.1 Language : Japanese Default : No Forced : No Text #1 ID : 4 Format : UTF-8 Codec ID : S_TEXT/UTF8 Codec ID/Info : UTF-8 Plain Text Duration : 1 h 29 min Bit rate : 0 b/s Frame rate : 0.002 FPS Count of elements : 11 Stream size : 247 Bytes (0%) Title : FR Forced Language : French Default : Yes Forced : Yes Text #2 ID : 5 Format : UTF-8 Codec ID : S_TEXT/UTF8 Codec ID/Info : UTF-8 Plain Text Duration : 2 h 3 min Bit rate : 28 b/s Frame rate : 0.158 FPS Count of elements : 1167 Stream size : 25.8 KiB (0%) Title : FR Subs Language : French Default : No Forced : No

File list