My.Oni.Girl.2024.MULTi.1080p.WEB.x264-FW (VOSTFR, VF, Suki demo Kirai na Amanojaku, Mon Oni à moi)

Category:
Date:
2024-05-27 21:46 UTC
Submitter:
Anonymous
Seeders:
13
Information:
No information.
Leechers:
1
File size:
4.9 GiB
Completed:
254
Info hash:
60a345f7daea25bcde1522bf0ed77e04f10cabb9
Plus d’infos : https://www.nautiljon.com/animes/suki+demo+kirai+na+amanojaku.html Lien de téléchargement : https://multiup.io/763cea962daf729a29a5c0415acaee76 NFO : General Unique ID : 151820118449383703348053888794386490385 (0x72377DC121C26E0B80F99CF0DB17E411) Complete name : My.Oni.Girl.2024.MULTi.1080p.WEB.x264-FW.mkv Format : Matroska Format version : Version 4 File size : 4.93 GiB Duration : 1 h 44 min Overall bit rate mode : Variable Overall bit rate : 6 764 kb/s Frame rate : 23.976 FPS Movie name : Mon oni à moi (2024) Encoded date : 2024-05-24 08:35:43 UTC Writing application : mkvmerge v84.0 ('Sleeper') 64-bit Writing library : libebml v1.4.5 + libmatroska v1.7.1 Video ID : 1 Format : AVC Format/Info : Advanced Video Codec Format profile : Main@L4 Format settings : CABAC / 3 Ref Frames Format settings, CABAC : Yes Format settings, Reference frames : 3 frames Codec ID : V_MPEG4/ISO/AVC Duration : 1 h 44 min Bit rate mode : Variable Bit rate : 5 000 kb/s Maximum bit rate : 7 500 kb/s Width : 1 920 pixels Height : 1 080 pixels Display aspect ratio : 16:9 Frame rate mode : Constant Frame rate : 23.976 (24000/1001) FPS Color space : YUV Chroma subsampling : 4:2:0 Bit depth : 8 bits Scan type : Progressive Bits/(Pixel*Frame) : 0.101 Stream size : 3.53 GiB (72%) Writing library : x264 core 148 r2727 7d026e8 Encoding settings : cabac=1 / ref=3 / deblock=1:0:0 / analyse=0x1:0x111 / me=umh / subme=10 / psy=1 / psy_rd=1.00:0.00 / mixed_ref=1 / me_range=24 / chroma_me=1 / trellis=2 / 8x8dct=0 / cqm=0 / deadzone=21,11 / fast_pskip=1 / chroma_qp_offset=-2 / threads=6 / lookahead_threads=1 / sliced_threads=0 / nr=0 / decimate=1 / interlaced=0 / bluray_compat=0 / stitchable=1 / constrained_intra=0 / bframes=2 / b_pyramid=0 / b_adapt=2 / b_bias=0 / direct=3 / weightb=1 / open_gop=0 / weightp=2 / keyint=240 / keyint_min=121 / scenecut=0 / intra_refresh=0 / rc_lookahead=48 / rc=2pass / mbtree=1 / bitrate=5000 / ratetol=1.0 / qcomp=0.50 / qpmin=6 / qpmax=51 / qpstep=4 / cplxblur=20.0 / qblur=0.5 / vbv_maxrate=7500 / vbv_bufsize=10000 / nal_hrd=vbr / filler=0 / ip_ratio=1.40 / aq=1:1.00 Language : Japanese Default : Yes Forced : No Audio #1 ID : 2 Format : E-AC-3 Format/Info : Enhanced AC-3 Commercial name : Dolby Digital Plus Codec ID : A_EAC3 Duration : 1 h 44 min Bit rate mode : Constant Bit rate : 640 kb/s Channel(s) : 6 channels Channel layout : L R C LFE Ls Rs Sampling rate : 48.0 kHz Frame rate : 31.250 FPS (1536 SPF) Compression mode : Lossy Stream size : 478 MiB (9%) Language : French Service kind : Complete Main Default : Yes Forced : No Dialog Normalization : -27 dB compr : -0.28 dB dialnorm_Average : -27 dB dialnorm_Minimum : -27 dB dialnorm_Maximum : -27 dB Audio #2 ID : 3 Format : E-AC-3 Format/Info : Enhanced AC-3 Commercial name : Dolby Digital Plus Codec ID : A_EAC3 Duration : 1 h 44 min Bit rate mode : Constant Bit rate : 640 kb/s Channel(s) : 6 channels Channel layout : L R C LFE Ls Rs Sampling rate : 48.0 kHz Frame rate : 31.250 FPS (1536 SPF) Compression mode : Lossy Stream size : 478 MiB (9%) Title : AD Language : French Service kind : Complete Main Default : No Forced : No Dialog Normalization : -27 dB compr : -0.28 dB dialnorm_Average : -27 dB dialnorm_Minimum : -27 dB dialnorm_Maximum : -27 dB Audio #3 ID : 4 Format : E-AC-3 Format/Info : Enhanced AC-3 Commercial name : Dolby Digital Plus Codec ID : A_EAC3 Duration : 1 h 44 min Bit rate mode : Constant Bit rate : 640 kb/s Channel(s) : 6 channels Channel layout : L R C LFE Ls Rs Sampling rate : 48.0 kHz Frame rate : 31.250 FPS (1536 SPF) Compression mode : Lossy Stream size : 478 MiB (9%) Language : Japanese Service kind : Complete Main Default : No Forced : No Dialog Normalization : -27 dB compr : -0.28 dB dialnorm_Average : -27 dB dialnorm_Minimum : -27 dB dialnorm_Maximum : -27 dB Text #1 ID : 5 Format : ASS Codec ID : S_TEXT/ASS Codec ID/Info : Advanced Sub Station Alpha Duration : 1 h 5 min Bit rate : 0 b/s Frame rate : 0.001 FPS Count of elements : 5 Compression mode : Lossless Stream size : 185 Bytes (0%) Title : Forced Language : French Default : Yes Forced : Yes Text #2 ID : 6 Format : ASS Codec ID : S_TEXT/ASS Codec ID/Info : Advanced Sub Station Alpha Duration : 1 h 41 min Bit rate : 82 b/s Frame rate : 0.204 FPS Count of elements : 1241 Compression mode : Lossless Stream size : 61.5 KiB (0%) Language : French Default : No Forced : No Text #3 ID : 7 Format : ASS Codec ID : S_TEXT/ASS Codec ID/Info : Advanced Sub Station Alpha Duration : 1 h 41 min Bit rate : 133 b/s Frame rate : 0.278 FPS Count of elements : 1696 Compression mode : Lossless Stream size : 99.7 KiB (0%) Title : SDH Language : Japanese Default : No Forced : No Text #4 ID : 8 Format : ASS Codec ID : S_TEXT/ASS Codec ID/Info : Advanced Sub Station Alpha Duration : 1 h 41 min Bit rate : 84 b/s Frame rate : 0.214 FPS Count of elements : 1298 Compression mode : Lossless Stream size : 62.5 KiB (0%) Language : English Default : No Forced : No

File list