[MagicStar] Shanai Shokeinin ~ Kanojo wa Teki wo Keshiteiku ~ EP06 [WEBDL] [1080p] [DMM-TV] [V0]

Category:
Date:
2024-05-25 16:35 UTC
Submitter:
Seeders:
6
Information:
Leechers:
1
File size:
791.9 MiB
Completed:
646
Info hash:
ce66d02e61d2757d10f96a4d9782fa80bd36d992
HD 1080p from DMM TV. ************** We are planning to upload all DMM TV Dramas and Movies, we need your Support! ************** Support Us Ali (Zhifubao / QR code): https://i.ibb.co/FWV2ggm/1660626347125.png PayPalMe: https://www.paypal.com/paypalme/sakuragikenji BTC (USDT): 19y5NF6voysif7PeJLv86Hf186ZS1i4rwu ETH: 0x807B4eec355Cfa65500BeE65A992a9a0d8432697 LTC: LUC2dTQkte7muv5oUUuRNJimLJvi9pgZUQ ************** ![alt text](https://i.ibb.co/n7jQDyG/Shanai-shokeinin-1.jpg) ![alt text](https://i.ibb.co/fxWrzF2/Shanai-Shokeinin-Kanojo-wa-Teki-wo-Keshiteiku-EP06-1080p-DMM-TV-WEB-DL-AAC2-0-H-264-V0-Magic-Star-mk.jpg) ``` General Unique ID : 19982714438477459261545068067181737444 (0xF0887E3361C03E463C42451299AB5E4) Complete name : Shanai.Shokeinin.Kanojo.wa.Teki.wo.Keshiteiku.EP06.1080p.DMM-TV.WEB-DL.AAC2.0.H.264.V0-MagicStar.mkv Format : Matroska Format version : Version 4 File size : 792 MiB Duration : 24 min 3 s Overall bit rate : 4 603 kb/s Frame rate : 29.970 FPS Encoded date : 2024-05-25 16:29:15 UTC Writing application : mkvmerge v50.0.0 ('Awakenings') 64-bit Writing library : libebml v1.4.0 + libmatroska v1.6.2 Cover : Yes Attachments : cover.png Video ID : 1 Format : AVC Format/Info : Advanced Video Codec Format profile : High@L4 Format settings : CABAC / 1 Ref Frames Format settings, CABAC : Yes Format settings, Reference fra : 1 frame Format settings, GOP : M=1, N=24 Codec ID : V_MPEG4/ISO/AVC Duration : 24 min 3 s Bit rate mode : Constant Bit rate : 4 396 kb/s Width : 1 920 pixels Height : 1 080 pixels Display aspect ratio : 16:9 Frame rate mode : Constant Frame rate : 29.970 (29970/1000) FPS Original frame rate : 29.970 (30000/1001) FPS Color space : YUV Chroma subsampling : 4:2:0 Bit depth : 8 bits Scan type : Progressive Bits/(Pixel*Frame) : 0.071 Stream size : 744 MiB (94%) Default : Yes Forced : No Color range : Limited Color primaries : BT.709 Transfer characteristics : BT.709 Matrix coefficients : BT.709 Audio ID : 2 Format : AAC LC Format/Info : Advanced Audio Codec Low Complexity Codec ID : A_AAC-2 Duration : 24 min 3 s Bit rate : 256 kb/s Channel(s) : 2 channels Channel layout : L R Sampling rate : 48.0 kHz Frame rate : 46.875 FPS (1024 SPF) Compression mode : Lossy Stream size : 44.0 MiB (6%) Title : 日本語 [オリジナル] Language : Japanese Default : Yes Forced : No ```

File list