[MagicStar] Yakusoku ~ 16-nenme no Shinjitsu ~ EP07 [WEBDL] [1080p] [HULU] [JPN_SUB]

Category:
Date:
2024-05-25 16:35 UTC
Submitter:
Seeders:
5
Information:
Leechers:
0
File size:
1.9 GiB
Completed:
964
Info hash:
c48bc04bcabf5ff113334d149c9b30ebd5cd5679
HD 1080p from HULU JAPAN. Japanese subtitles added. ************** Support Us Ali (Zhifubao / QR code): https://i.ibb.co/FWV2ggm/1660626347125.png PayPalMe: https://www.paypal.com/paypalme/sakuragikenji BTC (USDT): 19y5NF6voysif7PeJLv86Hf186ZS1i4rwu ETH: 0x807B4eec355Cfa65500BeE65A992a9a0d8432697 LTC: LUC2dTQkte7muv5oUUuRNJimLJvi9pgZUQ ************** ![alt text](https://i.ibb.co/KjwVtH9/7f65f3b9-0c5c-4668-8fa2-188baa70164db.jpg) ![alt text](https://i.ibb.co/pQtCdtm/Yakusoku-16-nenme-no-Shinjitsu-EP07-1080p-HULU-WEB-DL-AAC2-0-H-264-Magic-Star-mkv.jpg) ``` General Unique ID : 78614568421166426777472840999938142724 (0x3B249D79BB8459C3956C07C7CF51B204) Complete name : Yakusoku.16.nenme.no.Shinjitsu.EP07.1080p.HULU.WEB-DL.AAC2.0.H.264-MagicStar.mkv Format : Matroska Format version : Version 4 File size : 1.86 GiB Duration : 42 min 47 s Overall bit rate : 6 234 kb/s Frame rate : 29.970 FPS Encoded date : 2024-05-25 16:24:18 UTC Writing application : mkvmerge v50.0.0 ('Awakenings') 64-bit Writing library : libebml v1.4.0 + libmatroska v1.6.2 Cover : Yes Attachments : cover.png Video ID : 1 Format : AVC Format/Info : Advanced Video Codec Format profile : High@L4 Format settings : CABAC / 4 Ref Frames Format settings, CABAC : Yes Format settings, Reference fra : 4 frames Codec ID : V_MPEG4/ISO/AVC Duration : 42 min 46 s Bit rate : 5 978 kb/s Width : 1 920 pixels Height : 1 080 pixels Display aspect ratio : 16:9 Frame rate mode : Constant Frame rate : 29.970 (29970/1000) FPS Original frame rate : 29.970 (30000/1001) FPS Color space : YUV Chroma subsampling : 4:2:0 Bit depth : 8 bits Scan type : Progressive Bits/(Pixel*Frame) : 0.096 Stream size : 1.79 GiB (96%) Default : Yes Forced : No Color range : Limited Color primaries : BT.709 Transfer characteristics : BT.709 Matrix coefficients : BT.709 Audio ID : 2 Format : AAC LC Format/Info : Advanced Audio Codec Low Complexity Codec ID : A_AAC-2 Duration : 42 min 47 s Bit rate : 253 kb/s Channel(s) : 2 channels Channel layout : L R Sampling rate : 48.0 kHz Frame rate : 46.875 FPS (1024 SPF) Compression mode : Lossy Stream size : 77.5 MiB (4%) Title : 日本語 [オリジナル] Language : Japanese Default : Yes Forced : No ```

File list