[MagicStar] Believe - Kimi ni Kakeru Hashi - EP05 [WEBDL] [1080p] [JPN_SUB]

Category:
Date:
2024-05-25 16:35 UTC
Submitter:
Seeders:
12
Information:
Leechers:
0
File size:
930.7 MiB
Completed:
1746
Info hash:
ab118342d3f767f4f6ea8b632b8e2a999796bf95
HD 1080p from TVer. Japanese subtitles added. ![alt text](https://i.ibb.co/dmpKZq2/GK2c-ZGob-UAAe-UUL.jpg) ![alt text](https://i.ibb.co/JttfCRP/Magic-Star-Believe-Kimi-ni-Kakeru-Hashi-EP05-WEBDL-1080p-mkv.jpg) ``` General Unique ID : 184056338658227768309543879452609115475 (0x8A77F61ECF3C5A6DE223C82A841A7553) Complete name : [MagicStar] Believe - Kimi ni Kakeru Hashi - EP05 [WEBDL] [1080p].mkv Format : Matroska Format version : Version 4 File size : 931 MiB Duration : 45 min 1 s Overall bit rate : 2 889 kb/s Frame rate : 29.970 FPS Encoded date : 2024-05-25 16:13:56 UTC Writing application : mkvmerge v50.0.0 ('Awakenings') 64-bit Writing library : libebml v1.4.0 + libmatroska v1.6.2 Video ID : 1 Format : AVC Format/Info : Advanced Video Codec Format profile : High@L4 Format settings : CABAC / 4 Ref Frames Format settings, CABAC : Yes Format settings, Reference fra : 4 frames Codec ID : V_MPEG4/ISO/AVC Duration : 45 min 1 s Bit rate : 2 695 kb/s Width : 1 920 pixels Height : 1 080 pixels Display aspect ratio : 16:9 Frame rate mode : Constant Frame rate : 29.970 (29970/1000) FPS Original frame rate : 29.970 (30000/1001) FPS Color space : YUV Chroma subsampling : 4:2:0 Bit depth : 8 bits Scan type : Progressive Bits/(Pixel*Frame) : 0.043 Stream size : 868 MiB (93%) Default : Yes Forced : No Color range : Limited Matrix coefficients : BT.709 Audio ID : 2 Format : AAC LC Format/Info : Advanced Audio Codec Low Complexity Codec ID : A_AAC-2 Duration : 45 min 1 s Bit rate : 192 kb/s Channel(s) : 2 channels Channel layout : L R Sampling rate : 48.0 kHz Frame rate : 46.875 FPS (1024 SPF) Compression mode : Lossy Stream size : 61.7 MiB (7%) Title : 日本語 [オリジナル] Language : Japanese Default : Yes Forced : No ```

File list